<?xml version="1.0" standalone="no"?>
<!DOCTYPE svg PUBLIC "-//W3C//DTD SVG 1.1//EN" "http://www.w3.org/Graphics/SVG/1.1/DTD/svg11.dtd">
<svg xmlns="http://www.w3.org/2000/svg">
<metadata>Generated by Fontastic.me</metadata>
<defs>
<font id="foodpress" horiz-adv-x="512">
<font-face font-family="foodpress" units-per-em="512" ascent="480" descent="-32"/>
<missing-glyph horiz-adv-x="512" />

<glyph unicode="&#97;" d="M360 414l-12-12c66-65 66-172 0-238-66-66-173-66-238 0l-12-12c36-36 84-54 131-54 47 0 95 18 131 54 72 72 72 190 0 262z m-21-241c60 60 60 158 0 218l-218-218c60-60 158-60 218 0z m2 170c6 0 11-5 11-5 0 0-5-5-11-5-6 0-11 5-11 5 0 0 5 5 11 5z m-35-99c0 0 5-5 5-11 0-6-4-11-4-11 0 0-5 5-6 11 0 6 5 11 5 11z m19 34c0 0-5-4-12-3-6 1-10 6-10 6 0 0 6 5 12 4 6-1 10-7 10-7z m-38-61c0 0-3-6-8-9-6-3-12 0-12 0 0 0 2 6 8 9 5 2 12 0 12 0z m-20 43c0 0 5-5 5-11 0-6-5-11-5-11 0 0-5 5-5 11 0 6 5 11 5 11z m6 37c0 0 7 0 12-4 4-4 5-11 5-11 0 0-7 0-12 4-4 4-5 11-5 11z m-45-42c0 0 5-5 5-11 0-6-5-11-5-11 0 0-5 5-5 11 0 6 5 11 5 11z m3-50c5-3 6-10 6-10 0 0-7-1-12 2-5 4-6 11-6 11 0 0 7 1 12-3z m-47-30c-5 4-6 11-6 11 0 0 7 1 12-3 4-4 5-11 5-11 0 0-7 0-11 3z"/>
<glyph unicode="&#98;" d="M361 316c-11 0-21-1-31-2-8-2-15 2-15 9l0 12c0 19-39 34-88 34-48 0-87-15-87-34l0-46c0-7-7-14-15-15-26-6-43-17-43-30l0-75c0-19 40-34 88-34 49 0 88 15 88 34l0 46c0 7 3 13 8 14 4 1 8-4 8-10l0-12c0-19 39-35 87-35 49 0 88 16 88 35l0 74c0 19-39 35-88 35z m-191-103c-37 0-67 12-67 27 0 14 30 26 67 26 37 0 67-12 67-26 0-15-30-27-67-27z m57 91c-37 0-67 12-67 26 0 15 30 27 67 27 38 0 68-12 68-27 0-14-30-26-68-26z m134-53c-37 0-67 11-67 26 0 15 30 26 67 26 38 0 68-11 68-26 0-15-30-26-68-26z m-136 94c-21 0-38-5-38-12 0-7 17-13 38-13 20 0 37 6 37 13 0 7-17 12-37 12z m-56-93c-21 0-37-6-37-12 0-7 16-13 37-13 20 0 37 6 37 13 0 6-17 12-37 12z m230 26c0 7-17 13-37 13-21 0-38-6-38-13 0-6 17-12 38-12 20 0 37 6 37 12z"/>
<glyph unicode="&#99;" d="M330 196c0 0-7-36-52-51-28-10-186-27-210 56 2 0 4 0 6 0l0 0 1 0c1 0 78 3 153-6 40-5 75-4 101 1 0 0 0 0 1 0z m153 35c-3-17-21-16-33-12 0 0 27-12 16-30-6-11-24-10-46 7-23 19-32 35-32 35 0 0 4 7 6 19 9 1 27 5 47 4 21-2 44-6 42-23z m-109 8c-1-2-2-3-3-5-7-11-23-18-45-23-4-1-8-1-12-2-7 11-21 37-30 53 41-8 73-17 90-23z m2 16c-18 5-50 15-91 22 11 7 28 20 40 28 33-13 45-29 49-39 1-4 2-8 2-11z m-79-47c-19-2-42-1-67 2-6 11-30 47-40 63 28-1 53-4 75-8z m10 103l-43-30c-21 3-44 6-69 7 11 10 30 27 40 37 16-2 33-5 53-9 7-2 13-3 19-5z m-96-99c-23 2-45 3-65 4-6 8-29 39-41 55 23 3 45 3 67 3z m4 115l-42-38c-21 0-44 0-66-2 13 13 40 39 43 41 19 2 40 1 65-1z m-89-111c-28 1-48 0-51 0-29 2-43 23-46 40 0 1 0 2 0 2 20 5 39 9 59 12z m0 111l-44-43c-17-2-35-5-52-10 6 23 32 46 82 51 4 1 9 1 14 2z"/>
<glyph unicode="&#100;" d="M243 227c-3 0-4 0-6-1-2-1-4-3-5-6-1-1-1-3-1-5 0 0 0 0 0-1 0-6 5-11 12-11 4 0 8 3 10 6 1 2 2 4 2 6 0 0 0 0 0 0 0 3-1 5-3 7-2 3-5 5-9 5z m36 20c0-6-6-12-12-12-7 0-12 6-12 12 0 7 5 12 12 12 6 0 12-5 12-12z m-40 16c0-6-6-12-12-12-7 0-12 6-12 12 0 7 5 12 12 12 6 0 12-5 12-12z m17 232c-132 0-239-107-239-239 0-132 107-239 239-239 132 0 239 107 239 239 0 132-107 239-239 239z m-171-315c2 17 5 41 16 65 1 2 2 4 3 6 1 2 2 3 3 5 17 31 47 57 100 58 1 0 2 0 4 0 1 0 3 1 4 1 64 0 107-70 127-114 1-1 1-2 2-3 1-2 1-3 2-5 2-2 4-5 6-7 2-2 4-4 6-6z m282 15l-3 1-5 1c-1 2-3 4-4 6 0 1-1 3-2 4-22 47-68 120-138 120-2 0-4 0-6 0-1 0-2 0-3 0-60-2-94-33-112-67-4 2-29 24 8 39 0 0-13 33 9 33 2 0 4 0 7-1 0 0 10 24 32 24 7 0 15-2 24-8 0 0 19 26 46 26 4 0 7-1 11-2 15-3 23-12 27-19 1-2 2-5 3-6 1-5 2-9 2-10 0 0 0-1 0-1 0 0 0 0 0 1 2 0 7 1 12 2 4 1 8 1 12 1 7 0 30-7 24-29 0-1 0-2 0-3 0 0 1 1 2 1 0 0 1 0 1 0 4 0 12-2 21-10 7-6 2-19 0-22 0 0 0-1 0-1 0 0 0 0 0 1 3 1 12 6 20 6 4 0 9-2 12-7 7-14-12-29-16-31 0-1 0-1 0-1 0 0 0 0 1 0 3 0 16-2 23-16 7-15 8-16-5-29-1-1-2-2-3-3z m56-9c-6-8-13-9-16-9-15 0-26 1-32 9l1 0c18 19 21 25 10 47-3 6-8 11-13 15 7 9 11 21 5 33-5 9-13 14-23 14-2 0-3 0-5 0-1 5-3 9-7 13-7 6-13 9-18 10-1 8-3 13-6 17 52-14 95-55 106-93 9-33 4-48-2-56z"/>
<glyph unicode="&#101;" d="M319 335c3-4 5-9 6-17 5-1 11-4 18-10 4-4 6-8 7-13 2 0 3 0 5 0 10 0 18-5 23-14 6-12 2-24-5-33 5-4 10-9 13-15 11-22 8-28-10-47l-1 0c6-8 17-9 32-9 3 0 10 1 16 9 6 8 11 23 2 56-11 38-54 79-106 93z m56-108c-7 14-20 16-23 16-1 0-1 0-1 0 0 0 0 0 0 1 4 2 23 17 16 31-3 5-8 7-12 7-8 0-17-5-20-6 0-1 0-1 0-1 0 0 0 1 0 1 2 3 7 16 0 22-9 8-17 10-21 10 0 0-1 0-1 0-1 0-2-1-2-1 0 1 0 2 0 3 6 22-17 29-24 29-4 0-8 0-12-1-5-1-10-2-12-2 0-1 0-1 0-1 0 0 0 1 0 1 0 1-1 5-2 10-1 1-2 3-3 6-4 7-12 16-27 19-4 1-7 2-11 2-27 0-46-26-46-26-9 6-17 8-24 8-22 0-32-24-32-24-3 1-5 1-7 1-22 0-9-33-9-33-37-15-12-37-8-39 18 34 52 65 112 67 1 0 2 0 3 0 2 0 4 0 6 0 70 0 116-73 138-120 1-1 2-3 2-4 1-2 3-4 4-6l5-1 3-1c1 1 2 2 3 3 13 13 12 14 5 29z m-29-34c-1 2-1 3-2 5-1 1-1 2-2 3-20 44-63 114-127 114-1 0-3-1-4-1-2 0-3 0-4 0-53-1-83-27-100-58-1-2-2-3-3-5-1-2-2-4-3-6-11-24-14-48-16-65l272 0c-1 2-3 4-5 6-2 2-4 5-6 7z m-131 70c0 7 5 12 12 12 6 0 12-5 12-12 0-6-6-12-12-12-7 0-12 6-12 12z m40-48c0-2-1-4-2-6-2-3-6-6-10-6-7 0-12 5-12 11 0 1 0 1 0 1 0 2 0 4 1 5 1 3 3 5 5 6 2 1 3 1 6 1 4 0 7-2 9-5 2-2 3-4 3-7 0 0 0 0 0 0z m12 20c-7 0-12 6-12 12 0 7 5 12 12 12 6 0 12-5 12-12 0-6-6-12-12-12z"/>
<glyph unicode="&#102;" d="M345 206c7 15 8 34-11 52 12 6 28 11 40 8 6-2 10-7 12-13-1-7-10-30-41-47z m53 49c-4 11-11 18-21 21-18 6-41-4-52-10-5 3-9 6-15 9l-88 0c0 0-29-10-38-49 0 0-16 41-45 37l-10-10c0 0 23 5 33-30 0 0 3-47 37-41 0 0 15-18 29-16l1-6 80 1 0 5c0 0 13 9 24 22 56 21 65 62 65 64l0 2z m-126 42c3 1 4 3 4 6 0 4-3 8-7 8-4 0-7-4-7-8 0-3 1-5 4-7-20-1-37-14-37-14l76 0c-10 10-22 14-33 15z m-143 82c163-28 106-31 106-31-39-10-64-19-81-27-9-4-16-8-20-13-18-19 12-29 12-29-14 12-16 21-12 29 4 4 11 8 20 13 24 8 58 10 58 10 213 25-83 48-83 48z m127-362c-132 0-239 107-239 239 0 132 107 239 239 239 132 0 239-107 239-239 0-132-107-239-239-239z"/>
<glyph unicode="&#103;" d="M393 168c12 25 13 55-17 83 18 9 44 18 63 12 9-3 15-10 20-20-3-11-17-48-66-75z m84 79c-6 17-17 28-33 33-28 10-65-6-84-16-6 4-14 9-22 14l-141 0c0 0-46-16-59-78 0 0-26 66-72 60l-16-16c0 0 36 8 52-48 0 0 6-75 59-65 0 0 24-30 46-26l2-10 127 2 0 8c0 0 20 14 38 35 89 34 103 99 103 102l1 3z m-199 66c3 2 6 5 6 10 0 7-5 12-12 12-6 0-12-5-12-12 0-5 3-9 7-11-32-3-58-23-58-23l121 0c-17 17-35 23-52 24z m-228 131c258-46 168-50 168-50-62-16-102-31-128-43-14-5-26-12-32-21-29-29 19-45 19-45-22 19-26 34-19 45 7 6 17 13 32 21 38 13 92 16 92 16 339 40-132 77-132 77z"/>
<glyph unicode="&#104;" d="M184 271c0-6-6-12-13-12-7 0-13 6-13 12 0 7 6 13 13 13 7 0 13-6 13-13z m-32 29c0-5-4-10-9-10-5 0-10 5-10 10 0 5 5 9 10 9 5 0 9-4 9-9z m163-88c0-5-4-10-9-10-5 0-10 5-10 10 0 5 5 9 10 9 5 0 9-4 9-9z m-25-22c-7 0-12-6-12-13 0-7 5-12 12-12 7 0 13 5 13 12 0 7-6 13-13 13z m107 88c0-7-6-13-13-13-7 0-12 6-12 13 0 7 5 12 12 12 7 0 13-5 13-12z m-141 217c-132 0-239-107-239-239 0-132 107-239 239-239 132 0 239 107 239 239 0 132-107 239-239 239z m-183-189l188 55-19-76-33 16c-1 1-3 1-5 1-3 0-5 0-7-2-4-2-6-7-6-11l9-104z m147-211l-6 70 0 3 0 4-10 118 35-17 3-1 3-2 11-5 3-1 2-1 64-30 6-3 5-3 45-21z m130 140l-83 39 60 129 112-160z m9 58c0-5-4-9-9-9-5 0-10 4-10 9 0 6 5 10 10 10 5 0 9-4 9-10z"/>
<glyph unicode="&#105;" d="M191 289c0 4 2 9 6 11 2 2 4 2 7 2 2 0 4 0 5-1l33-16 19 76-188-55 127-121z m-48 1c-5 0-10 5-10 10 0 5 5 9 10 9 5 0 9-4 9-9 0-5-4-10-9-10z m28-31c-7 0-13 6-13 12 0 7 6 13 13 13 7 0 13-6 13-13 0-6-6-12-13-12z m156 144l-60-129 83-39 89 8z m23-119c-5 0-10 4-10 9 0 6 5 10 10 10 5 0 9-4 9-10 0-5-4-9-9-9z m34-19c-7 0-12 6-12 13 0 7 5 12 12 12 7 0 13-5 13-12 0-7-6-13-13-13z m-53-35l-6 3-64 30-2 1-3 1-11 5-3 2-3 1-35 17 10-118 0-4 0-3 6-70 161 111-45 21z m-41-65c-7 0-12 5-12 12 0 7 5 13 12 13 7 0 13-6 13-13 0-7-6-12-13-12z m16 37c-5 0-10 5-10 10 0 5 5 9 10 9 5 0 9-4 9-9 0-5-4-10-9-10z"/>
<glyph unicode="&#106;" d="M368 179l0 0-3-5c-1 0-5 1-9 4l-38 26c-5 3-8 6-8 7l4 5c0 0 4-1 9-4l38-26c5-3 8-6 7-7z m13 18l-3-5c-1-1-5 1-10 4l-38 26c-4 3-7 6-7 7l4 4c0 1 4-1 9-4l38-25c4-3 8-7 7-7z m10 13c-1-1-5 1-10 4l-38 25c-4 4-8 7-7 8l3 4c1 1 5-1 10-4l38-26c4-3 7-6 7-7l0 0z m6 12l-51 34c-6 5-15 3-19-3l-9-12-25 17-6-7 26-18-9-11c-4-6-3-14 3-18l52-35c6-4 14-3 18 3l23 32 0 0c4 6 3 14-3 18z m-26 107l-33 7c-4 1-9-1-12-5l-111-121 7-4 107 118c3 3 7 5 11 5l30-7c2 0 4 7 1 7z m-156-18c7 10-17 21-24 26l0 0c-3 2-6 1-8-1-3-4-6-9-9-13-2-2-1-5 2-7 6-4 26-23 33-13l41-28 7 8z m-78-137c28-15 60-5 76 20l-96 53c-16-25-5-59 20-73z m119-157c-132 0-239 107-239 239 0 132 107 239 239 239 132 0 239-107 239-239 0-132-107-239-239-239z"/>
<glyph unicode="&#107;" d="M466 207l-76 52c-9 6-22 3-28-5l-13-18-37 25-10-11 38-26-12-18c-7-8-5-20 5-26l76-52c9-6 21-4 28 5l34 47 0 0c6 9 4 21-5 27z m-43-64l0 0-5-7c-1-1-7 2-13 6l-57 39c-7 4-12 9-11 10l5 7c1 1 7-2 14-6l57-39c6-4 11-9 10-10z m19 26l-5-6c0-2-7 1-13 6l-57 38c-7 4-12 9-11 10l5 7c1 1 7-1 14-6l57-38c6-5 11-9 10-11z m19 27l-5-7c0-1-7 1-13 6l-57 38c-7 5-12 9-11 11l5 6c1 2 7-1 14-6l57-38c6-4 11-9 10-10z m-36 161l-45 9c-5 1-11-3-15-7l-160-175-10 5 165 181c4 5 12 9 18 7l50-10c3-1 1-11-3-10z m-233-192c-25-37-71-52-113-30-38 22-54 72-30 109z m65 133l-9-11-62 41c-10-15-40 13-49 19-4 3-6 8-3 11 4 6 9 13 13 19 3 3 8 4 12 1 10-6 46-23 36-38z"/>
<glyph unicode="&#108;" d="M229 238c-6 19-4 41 7 67-8 10-15 20-22 27-48-38-92-94-79-131 7-24 36-27 53-27 1 0 1 0 2 0 0 28 1 55 9 82 3 11 20 6 17-5-7-25-9-50-8-76 5 1 11 2 16 3 20 4 33 11 40 21-18 9-30 22-35 39z m27 257c-132 0-239-107-239-239 0-132 107-239 239-239 132 0 239 107 239 239 0 132-107 239-239 239z m158-265c-9-29-38-45-78-45-1 0-1 0-1 0-1-12-2-25-3-37 0-7-7-10-12-8-3 1-6 4-5 8 0 13 1 25 2 38 0 4 1 9 1 13 0 5 0 9 0 14 1 25-1 51-8 76-1 3 0 5 1 7-4-1-7-4-7-9 4-24 7-49 7-73 1-5 0-9 0-14 0-4 0-9-1-13-5 0-10 1-16 2-1 1-2 1-3 1-11-19-31-32-61-38-7-2-14-3-21-4 1-12 2-25 3-38 0-11-17-11-18 0-1 13-2 25-3 37-1 0-2 0-3 0-41 0-69 16-79 45-15 47 24 114 99 170l10 7 8-9c1-1 11-12 23-28 2 4 5 8 7 12 19 30 41 53 42 54l8 9 9-8c76-56 115-122 99-169z"/>
<glyph unicode="&#109;" d="M188 147c1 0 2 0 3 0 1-12 2-24 3-37 1-11 18-11 18 0-1 13-2 26-3 38 7 1 14 2 21 4 30 6 50 19 61 38 1 0 2 0 3-1 6-1 11-2 16-2 1 4 1 9 1 13 0 5 1 9 0 14 0 24-3 49-7 73 0 5 3 8 7 9-1-2-2-4-1-7 7-25 9-51 8-76 0-5 0-9 0-14 0-4-1-9-1-13-1-13-2-25-2-38-1-4 2-7 5-8 5-2 12 1 12 8 1 12 2 25 3 37 0 0 0 0 1 0 40 0 69 16 78 45 16 47-23 113-99 169l-9 8-8-9c-1-1-23-24-42-54-2-4-5-8-7-12-12 16-22 27-23 28l-8 9-10-7c-75-56-114-123-99-170 10-29 38-45 79-45z m26 185c7-7 14-17 22-27-11-26-13-48-7-67 5-17 17-30 35-39-7-10-20-17-40-21-5-1-11-2-16-3-1 26 1 51 8 76 3 11-14 16-17 5-8-27-9-54-9-82-1 0-1 0-2 0-17 0-46 3-53 27-13 37 31 93 79 131z"/>
<glyph unicode="&#110;" d="M311 233c0 6-5 11-5 11 0 0-5-5-5-11 1-6 6-11 6-11 0 0 4 5 4 11z m-33 53c5-4 12-4 12-4 0 0-1 7-5 11-5 4-12 4-12 4 0 0 1-7 5-11z m35-11c7-1 12 3 12 3 0 0-4 6-10 7-6 1-12-4-12-4 0 0 4-5 10-6z m-38-58c-6-3-8-9-8-9 0 0 6-3 12 0 5 3 8 9 8 9 0 0-7 2-12 0z m-3 32c0 6-5 11-5 11 0 0-5-5-5-11 0-6 5-11 5-11 0 0 5 5 5 11z m80 89c0 0-5 5-11 5-6 0-11-5-11-5 0 0 5-5 11-5 6 0 11 5 11 5z m-119-94c0 6-5 11-5 11 0 0-5-5-5-11 0-6 5-11 5-11 0 0 5 5 5 11z m23 251c-132 0-239-107-239-239 0-132 107-239 239-239 132 0 239 107 239 239 0 132-107 239-239 239z m83-104c60-60 60-158 0-218-60-60-158-60-218 0z m21-239c-36-36-84-54-131-54-47 0-95 18-131 54l12 12c65-66 172-66 238 0 66 66 66 173 0 238l12 12c72-72 72-190 0-262z m-123 43c0 0-1 7-6 10-5 4-12 3-12 3 0 0 1-7 6-11 5-3 12-2 12-2z m-47-12c-5 4-12 3-12 3 0 0 1-7 6-11 4-3 11-3 11-3 0 0-1 7-5 11z"/>
<glyph unicode="&#111;" d="M361 303c-37 0-67-11-67-26 0-15 30-26 67-26 38 0 68 11 68 26 0 15-30 26-68 26z m1-37c-21 0-38 6-38 12 0 7 17 13 38 13 20 0 37-6 37-13 0-6-17-12-37-12z m-135 91c-37 0-67-12-67-27 0-14 30-26 67-26 38 0 68 12 68 26 0 15-30 27-68 27z m-2-37c-21 0-38 6-38 13 0 7 17 12 38 12 20 0 37-5 37-12 0-7-17-13-37-13z m-55-54c-37 0-67-12-67-26 0-15 30-27 67-27 37 0 67 12 67 27 0 14-30 26-67 26z m-1-39c-21 0-37 6-37 13 0 6 16 12 37 12 20 0 37-6 37-12 0-7-17-13-37-13z m87 268c-132 0-239-107-239-239 0-132 107-239 239-239 132 0 239 107 239 239 0 132-107 239-239 239z m105-323c-48 0-87 16-87 35l0 12c0 6-4 11-8 10-5-1-8-7-8-14l0-46c0-19-39-34-88-34-48 0-88 15-88 34l0 75c0 13 17 24 43 30 8 1 15 8 15 15l0 46c0 19 39 34 87 34 49 0 88-15 88-34l0-12c0-7 7-11 15-9 10 1 20 2 31 2 49 0 88-16 88-35l0-74c0-19-39-35-88-35z"/>
<glyph unicode="&#112;" d="M310 227c0-2-2-4-4-4-2 0-4 2-4 4 0 2 2 4 4 4 2 0 4-2 4-4z m-96 189c-4 6-8 6-14 1l-76-68c-5-5-5-10 0-14l107-89c6-5 12-4 16 0l41 37c5 5 5 9 0 16z m79-200c0-2-2-4-4-4-2 0-4 2-4 4 0 2 2 4 4 4 2 0 4-2 4-4z m27 28c0-3-1-4-3-4-3 0-4 1-4 4 0 2 1 4 4 4 2 0 3-2 3-4z m-64 251c-132 0-239-107-239-239 0-132 107-239 239-239 132 0 239 107 239 239 0 132-107 239-239 239z m78-280c5 0 9-4 9-9 0-5-4-9-9-9-5 0-9 4-9 9 0 5 4 9 9 9z m-99 10l-136 113c-5 5-6 12 1 18l97 86c6 6 12 6 17-1l94-149c6-9 6-14 0-19l-52-48c-6-5-13-6-21 0z m25-10l58 53c22-33-28-75-58-53z m63-52c-5 0-9 4-9 9 0 4 4 8 9 8 4 0 8-4 8-8 0-5-4-9-8-9z m18-40c-5 0-8 4-8 8 0 5 3 9 8 9 5 0 9-4 9-9 0-4-4-8-9-8z m4 28c-4 0-8 4-8 9 0 5 4 9 8 9 5 0 9-4 9-9 0-5-4-9-9-9z m28-45c-5 0-9 3-9 8 0 5 4 9 9 9 4 0 8-4 8-9 0-5-4-8-8-8z"/>
<glyph unicode="&#113;" d="M348 252c0-7-6-13-13-13-8 0-13 6-13 13 0 7 5 13 13 13 7 0 13-6 13-13z m-93 0c0-7-6-13-13-13-7 0-13 6-13 13 0 7 6 13 13 13 7 0 13-6 13-13z m-92 0c0-7-6-13-13-13-7 0-13 6-13 13 0 7 6 13 13 13 7 0 13-6 13-13z m321-52c0 0-67-35-150-35l-156 0c-83 0-150 35-150 35 0 0 27 18 66 32 1 0 5 1 7 2-2-7-3-13 1-19 5-8 15-9 19-9l64 0c4 0 14 1 19 9 5 9 1 19-2 26l-33 66c-3 8-9 12-16 12-7 0-14-4-17-12l-32-66c0 0-1-1-1-1-2 0-5-1-6-1 0 2 1 3 2 5l32 66c4 9 13 15 22 15 1 0 22-1 22-1 8 0 17-5 21-14l32-66c4-9 9-21 2-32-1-2-4-4-6-6l53 0c4 0 14 1 19 9 5 9 1 19-2 26l-32 66c-4 8-10 12-17 12-7 0-13-4-17-12l-12-25-3 7 10 21c5 9 13 15 22 15 2 0 22-1 22-1 9 0 17-5 21-14l10-19 22-47c5-9 9-21 2-32-1-2-3-4-6-6l53 0c4 0 14 1 19 9 6 9 2 19-2 26l-32 66c-3 8-10 12-17 12-7 0-13-4-16-12l-13-25-3 6 10 22c5 9 13 14 22 15 8 0 22-1 22-1 9 0 17-5 22-14l32-66c1-4 3-8 4-12 40-14 67-32 67-32z"/>
<glyph unicode="&#114;" d="M399 261c-13 1-24-2-30-3-1-7-4-11-4-11 0 0 6-11 21-23 14-11 26-12 30-5 7 12-11 19-11 19 8-2 20-3 21 8 2 11-13 14-27 15z m-43 8c-3 7-10 17-31 25-8-5-19-13-26-18 27-5 47-11 59-14-1 2-1 5-2 7z m-56 32c-12 3-23 5-34 6-6-6-18-17-25-24 16-1 31-2 44-4l28 19c-4 1-8 2-13 3z m-89 8c-1-1-18-18-27-26 14 1 29 1 43 1l26 24c-16 2-29 2-42 1z m-24-2c-32-3-49-18-53-33 11 3 23 5 34 7l28 27c-3 0-6 0-9-1z m-53-44c2-11 10-25 29-26 2 0 15 0 34 0l-25 34c-13-1-26-4-38-7 0 0 0-1 0-1z m160-72c29 9 34 33 34 33-1 0-1 0-1 0-17-3-39-4-65-1-48 6-98 4-99 4l0 0 0 0c-2 0-3 0-4 0 15-53 117-42 135-36z m-68 83c-14 0-28 0-43-1 7-11 22-31 26-36 13-1 27-1 42-3z m38-41c16-2 30-2 43-2l-21 37c-14 3-31 5-48 6 6-11 21-34 26-41z m90 15c1 1 2 3 2 4-11 3-31 9-58 14 6-10 15-26 19-34 3 1 6 1 8 2 15 3 25 8 29 14z m-98-231c-132 0-239 107-239 239 0 132 107 239 239 239 132 0 239-107 239-239 0-132-107-239-239-239z"/>
<glyph unicode="&#115;" d="M171 250c0-5 4-9 9-9 5 0 9 4 9 9 0 5-4 9-9 9-5 0-9-4-9-9z m66 0c0-5 4-9 9-9 5 0 9 4 9 9 0 5-4 9-9 9-5 0-9-4-9-9z m66 0c0-5 4-9 9-9 5 0 9 4 9 9 0 5-4 9-9 9-5 0-9-4-9-9z m68-14c0 3-2 6-3 8l-23 47c-3 7-9 11-15 11 0 0-11 0-16 0-6 0-12-4-15-11l-8-15 2-5 9 19c3 5 7 8 12 8 5 0 10-3 12-8l23-48c3-5 6-12 2-18-4-6-11-7-14-7l-38 0c2 1 3 3 5 5 4 7 1 16-2 22l-16 34-7 13c-3 7-9 11-15 11 0 0-15 0-16 0-6 0-12-4-15-11l-8-15 2-5 9 19c3 5 7 8 12 8 5 0 10-3 12-8l23-48c3-5 6-12 2-18-4-6-11-7-14-7l-38 0c2 1 3 3 5 5 4 7 1 16-2 22l-23 47c-3 7-9 11-15 11 0 0-15 0-16 0-6 0-12-4-15-11l-23-47c-1-1-2-2-2-3 1 0 3 0 5 0 0 1 0 1 0 1l23 48c3 5 7 8 12 8 5 0 10-3 12-8l23-48c3-5 5-12 2-18-4-6-11-7-14-7l-46 0c-3 0-10 1-13 7-3 4-3 8-1 13-2-1-4-1-5-1-28-10-47-23-47-23 0 0 48-25 107-25l112 0c59 0 107 25 107 25 0 0-19 13-48 23z m-115-219c-132 0-239 107-239 239 0 132 107 239 239 239 132 0 239-107 239-239 0-132-107-239-239-239z"/>
<glyph unicode="&#116;" d="M98 358l340 87c4 1 7 5 6 9l-3 7c-1 4-6 6-10 5l-338-94c-4-1-7-5-5-9 1-4 5-6 10-5z m360 39l-2 7c-1 4-5 6-9 5l-345-69c-5-1-8-5-7-9 1-4 5-6 10-6l54 10c2-2 4-4 5-8 2-8-1-17-8-26-9-13-13-23-14-31-2-14 8-24 19-34 1-2 3-3 5-5 7-8 10-22 7-38-1-4-2-7-3-11l-102 0c1-47 28-88 68-112l158 0c40 24 67 65 68 112l-100 0c1 3 3 7 3 11 4 18 0 36-10 47-2 1-4 3-5 5-12 11-19 18-15 31 2 5 5 12 11 20 9 12 13 24 10 35-2 9-8 15-13 19l209 38c4 1 7 5 6 9z m-244-204c-1-4-2-7-3-11l-30 0c1 3 2 6 2 9 4 19 0 37-10 47-2 2-4 4-5 5-11 10-17 17-16 27 1 6 5 14 12 24 9 13 13 24 10 35-1 3-2 6-3 8l23 4c4-2 9-7 11-14 2-8-1-17-8-26-26-36-12-49 5-65 1-2 3-3 5-5 4-5 7-12 8-20 1-5 0-12-1-18z m32 135c2-8-1-16-8-26-7-10-11-18-13-25-5-18 5-28 18-40 1-1 3-3 5-5 7-8 10-22 7-37-1-5-2-9-4-13l-30 0c2 3 3 6 3 9 2 8 2 15 1 21-1 11-5 20-11 26-2 2-4 4-5 5-17 16-24 23-4 51 9 13 13 24 10 35-1 6-5 11-8 15l20 3c7-4 17-11 19-19z m-101-272l143 0 0-21-143 0z"/>
<glyph unicode="&#117;" d="M436 266l0-5c0-97-88-176-197-176-109 0-198 79-198 176l0 5z m-125-180l0-31-145 0 0 31 5 0c21-6 44-10 68-10 24 0 46 4 68 10z m159 362l-98-172-22 0 103 182c3 4 9 6 13 3 5-2 6-8 4-13z m-80-46l-42-126-20 0 44 132c2 5 7 8 12 6 5-2 7-7 6-12z"/>
<glyph unicode="&#118;" d="M368 344l-58-53c2 1 3 1 5 1 4 0 8-2 10-5 2 3 5 5 9 5l50 37z m-30 23l-46-62c3-2 6-6 6-11 0-1-1-1-1-2l1 0 58 64z m-53-63l0 2c0 5-4 9-9 9-5 0-9-4-9-9l0-2-3-1c-3-1-6-4-6-8 2 0 4-1 6-2 1-1 2-1 2-2 3 3 7 4 10 4 4 0 7-1 10-4 1 1 1 1 2 2 2 1 4 2 6 2 0 4-3 7-7 8z m-30-15c-2-1-4-2-6-4l-2-3-2 3c-2 3-5 4-8 4-4 0-7-3-8-7 1-2 1-4 2-7 0 0 1 0 2 0l0 0 1-1 2 0 0 0 2-1 0 0c1 0 1 0 1-1l1 0c6-3 10-9 10-17 6 0 50 0 57 0 0 1 0 2 0 3 0 6 3 11 9 14 0 1 0 1 0 2l0 1c1 0 1 1 1 2l0 0c1 1 1 1 2 2l0 1 1 0c1 2 2 3 4 3-1 1-2 2-2 2-1 2-4 4-7 4-3 0-5-2-7-4l-3-3-2 3c-2 2-4 3-6 4l-1 0c-3 0-6-1-8-4l-2-3-3 3c-1 3-4 4-7 4-3 0-5-1-7-4l-3-3-2 3c-2 3-4 4-7 4z m-27-20l-3 1 0 3c0 3-1 5-2 8-3 5-8 8-13 8l-3 0 0 3c0 9-7 15-16 15-8 0-16-7-16-15l0-3-2 0c-8-1-14-8-14-16l1-4-3 0c-6-2-10-7-11-14 6 0 93 0 98 0-1 6-4 11-10 13l-1 1c0 0-1 0-1 0-1 0-2 0-3 0z m127-7c0-1 0-2 0-4 0-1 0-2 0-3 3 0 6 0 9 0-1 4-3 6-7 7 0 0-2 0-2 0z m-10 10c1 0 1 0 2-1l0 0c4-2 6-4 7-8 0 1 1 4 1 4 0 5-4 9-9 9 0 0-1 0-2 0 1-1 1-2 1-4z m-1 8c0 5-4 9-9 9-3 0-6-1-8-4l0-1c1 1 2 1 3 1 1 0 2 0 3 0l1 0 1-1 1 0 1-1c1 0 2-1 2-1l1 0 1-1 0-1 1-1c1-1 1-1 1-2 0 1 1 2 1 2z m-2-13l-2 1 0 2c-1 5-5 9-10 9-5 0-9-4-9-9l0-2-2-1c-4-1-6-5-6-9 0-1 0-2 0-3 4 0 32 0 36 0 0 1 0 2 0 3 0 4-3 8-7 9z m-206-16c0-34 28-66 68-82l0-16 97 0 0 16c40 16 68 48 68 82l0 1-233 0z m120-234c-132 0-239 107-239 239 0 132 107 239 239 239 132 0 239-107 239-239 0-132-107-239-239-239z"/>
<glyph unicode="&#119;" d="M382 380c-2 2-6 1-7-2l-62-109 13 0 58 104c2 2 1 6-2 7z m-49-28c-3 1-6-1-7-4l-27-79 12 0 25 76c1 3 0 6-3 7z m-206-89l0-3c0-58 53-106 119-106 65 0 118 48 118 106l0 3z m75-127l87 0 0 19-3 0c-12-4-26-6-40-6-15 0-28 2-41 6l-3 0z m54-119c-132 0-239 107-239 239 0 132 107 239 239 239 132 0 239-107 239-239 0-132-107-239-239-239z"/>
<glyph unicode="&#120;" d="M423 423l-99-109 0 0c0 2 0 3 0 5 0 7-4 14-10 17l78 106z m48-45l-85-63c-7 0-12-4-16-8-3 5-9 8-16 8-3 0-6-1-8-2l98 89z m-75-81c-2 1-3 2-5 3l-1 1-2 0-2 1-2 0c-1 1-2 1-4 1-2 0-4-1-6-1l1 1c3 4 7 6 12 6 9 0 16-7 16-15l-1-1c0 0 0-2 0-3 0 1-1 2-2 3l-1 1-1 1-2 2z m11-9c8-1 15-8 15-16 0 0-1-5-1-6-2 6-7 10-12 13l0 1c-2 0-3 1-4 1 0 2-1 5-2 7 2 0 4 0 4 0z m31-35c-5 0-10 0-16 0 0 1 0 3 0 4 0 2 0 5 0 7 1-1 4-1 4-1 5-1 10-5 12-10z m-26 4c0-1 0-3-1-4-6 0-54 0-60 0-1 1-1 3-1 4 0 7 4 13 11 15l4 1 0 4c0 9 7 15 15 15 9 0 16-6 16-15l0-4 4-1c7-1 12-8 12-15z m-105 77c7-2 12-8 12-15-4 0-8-1-11-3-2-1-3-2-4-3-4 4-10 7-16 7-6 0-12-3-17-7-1 1-2 2-3 3-4 2-7 3-11 3 0 7 4 13 11 14l3 2 0 3c0 9 7 16 16 16 8 0 15-7 15-15l1-4z m59-31c0 0 2-2 3-3-3-1-5-3-7-5l-1-1-1-2c-1-1-1-2-2-3l0 0c-1-1-1-2-2-4l0-1c0-1-1-2-1-4-9-4-16-13-16-23 0-1 1-3 1-4-12 0-87 0-96 0-1 12-8 22-19 28l0 0c-1 1-1 1-2 2l-1 0-2 1-1 0-2 1-2 0-2 1c-1 0-2 0-3 0 0 4-1 9-3 12 2 7 8 11 15 11 4 0 9-2 12-6l4-5 4 5c3 3 6 6 11 6l2 0c5 0 9-2 12-6l4-5 4 5c3 4 8 6 13 6 5 0 9-2 12-6l4-5 4 5c3 4 8 6 13 6l2 0c4 0 8-3 10-6l4-5 4 5c3 4 8 6 13 6 5 0 9-2 12-6z m80-56l0-1c0-58-47-114-115-140l0-28-166 0 0 28c-69 26-116 82-116 140l0 1z m-213 6c-8 0-157 0-167 0 1 10 9 19 19 22l4 1 0 7c0 13 9 24 23 26l4 1 0 4c0 15 12 27 27 27 15 0 27-12 27-26l0-5 5 0c9-1 17-6 22-14 2-4 3-9 3-13l0-7 5 0 2 0c1 0 3 0 5 0 1-1 2-1 3-1l2-1c8-3 15-12 16-21z"/>
<glyph unicode="&#121;" d="M156 293c-14 1-26-10-27-24-1-14 10-26 24-27 14-1 26 10 27 24 1 14-10 27-24 27z m15-77c-9 0-17-7-18-16 0-10 7-18 16-18 10-1 18 6 18 16 1 9-6 17-16 18z m54 136c-15 1-27-10-27-24-1-14 10-26 24-27 14-1 26 10 27 24 0 14-10 26-24 27z m16-155c-14 1-26-10-27-24 0-14 10-26 25-27 14-1 26 10 27 24 0 14-10 27-25 27z m76 30c-9 1-17-6-18-16 0-9 7-17 16-18 10 0 18 7 18 16 1 10-6 18-16 18z m67 119c-9 1-17-6-18-16 0-9 7-17 16-18 10 0 18 7 18 16 1 10-6 18-16 18z m0 0c-9 1-17-6-18-16 0-9 7-17 16-18 10 0 18 7 18 16 1 10-6 18-16 18z m-228-53c-14 1-26-10-27-24-1-14 10-26 24-27 14-1 26 10 27 24 1 14-10 27-24 27z m15-77c-9 0-17-7-18-16 0-10 7-18 16-18 10-1 18 6 18 16 1 9-6 17-16 18z m54 136c-15 1-27-10-27-24-1-14 10-26 24-27 14-1 26 10 27 24 0 14-10 26-24 27z m16-155c-14 1-26-10-27-24 0-14 10-26 25-27 14-1 26 10 27 24 0 14-10 27-25 27z m76 30c-9 1-17-6-18-16 0-9 7-17 16-18 10 0 18 7 18 16 1 10-6 18-16 18z m-161 66c-14 1-26-10-27-24-1-14 10-26 24-27 14-1 26 10 27 24 1 14-10 27-24 27z m15-77c-9 0-17-7-18-16 0-10 7-18 16-18 10-1 18 6 18 16 1 9-6 17-16 18z m54 136c-15 1-27-10-27-24-1-14 10-26 24-27 14-1 26 10 27 24 0 14-10 26-24 27z m16-155c-14 1-26-10-27-24 0-14 10-26 25-27 14-1 26 10 27 24 0 14-10 27-25 27z m76 30c-9 1-17-6-18-16 0-9 7-17 16-18 10 0 18 7 18 16 1 10-6 18-16 18z m67 119c-9 1-17-6-18-16 0-9 7-17 16-18 10 0 18 7 18 16 1 10-6 18-16 18z m0 0c-9 1-17-6-18-16 0-9 7-17 16-18 10 0 18 7 18 16 1 10-6 18-16 18z m-67-119c-9 1-17-6-18-16 0-9 7-17 16-18 10 0 18 7 18 16 1 10-6 18-16 18z m-76-30c-14 1-26-10-27-24 0-14 10-26 25-27 14-1 26 10 27 24 0 14-10 27-25 27z m-16 155c-15 1-27-10-27-24-1-14 10-26 24-27 14-1 26 10 27 24 0 14-10 26-24 27z m-54-136c-9 0-17-7-18-16 0-10 7-18 16-18 10-1 18 6 18 16 1 9-6 17-16 18z m-15 77c-14 1-26-10-27-24-1-14 10-26 24-27 14-1 26 10 27 24 1 14-10 27-24 27z m0 0c-14 1-26-10-27-24-1-14 10-26 24-27 14-1 26 10 27 24 1 14-10 27-24 27z m15-77c-9 0-17-7-18-16 0-10 7-18 16-18 10-1 18 6 18 16 1 9-6 17-16 18z m54 136c-15 1-27-10-27-24-1-14 10-26 24-27 14-1 26 10 27 24 0 14-10 26-24 27z m16-155c-14 1-26-10-27-24 0-14 10-26 25-27 14-1 26 10 27 24 0 14-10 27-25 27z m76 30c-9 1-17-6-18-16 0-9 7-17 16-18 10 0 18 7 18 16 1 10-6 18-16 18z m67 119c-9 1-17-6-18-16 0-9 7-17 16-18 10 0 18 7 18 16 1 10-6 18-16 18z m0 0c-9 1-17-6-18-16 0-9 7-17 16-18 10 0 18 7 18 16 1 10-6 18-16 18z m-67-119c-9 1-17-6-18-16 0-9 7-17 16-18 10 0 18 7 18 16 1 10-6 18-16 18z m-76-30c-14 1-26-10-27-24 0-14 10-26 25-27 14-1 26 10 27 24 0 14-10 27-25 27z m8 128c0 14-10 26-24 27-15 1-27-10-27-24-1-14 10-26 24-27 14-1 26 10 27 24z m-78-109c-9 0-17-7-18-16 0-10 7-18 16-18 10-1 18 6 18 16 1 9-6 17-16 18z m9 50c1 14-10 27-24 27-14 1-26-10-27-24-1-14 10-26 24-27 14-1 26 10 27 24z m204 80c-9 1-17-6-18-16 0-9 7-17 16-18 10 0 18 7 18 16 1 10-6 18-16 18z m-69-153c10 0 18 7 18 16 1 10-6 18-16 18-9 1-17-6-18-16 0-9 7-17 16-18z m-101-20c0-14 10-26 25-27 14-1 26 10 27 24 0 14-10 27-25 27-14 1-26-10-27-24z m11 179c-15 1-27-10-27-24-1-14 10-26 24-27 14-1 26 10 27 24 0 14-10 26-24 27z m-54-136c-9 0-17-7-18-16 0-10 7-18 16-18 10-1 18 6 18 16 1 9-6 17-16 18z m9 50c1 14-10 27-24 27-14 1-26-10-27-24-1-14 10-26 24-27 14-1 26 10 27 24z m-24 27c-14 1-26-10-27-24-1-14 10-26 24-27 14-1 26 10 27 24 1 14-10 27-24 27z m15-77c-9 0-17-7-18-16 0-10 7-18 16-18 10-1 18 6 18 16 1 9-6 17-16 18z m54 136c-15 1-27-10-27-24-1-14 10-26 24-27 14-1 26 10 27 24 0 14-10 26-24 27z m16-155c-14 1-26-10-27-24 0-14 10-26 25-27 14-1 26 10 27 24 0 14-10 27-25 27z m76 30c-9 1-17-6-18-16 0-9 7-17 16-18 10 0 18 7 18 16 1 10-6 18-16 18z m67 119c-9 1-17-6-18-16 0-9 7-17 16-18 10 0 18 7 18 16 1 10-6 18-16 18z m103-33l-22-3c-8 56-44 104-94 128l10 20c57-27 98-81 106-145z m-127 102l-59-127 139 19c-7 47-37 88-80 108z m22-103c-9 1-16 9-16 18 1 10 9 17 18 16 10 0 17-8 16-18 0-9-8-16-18-16z m1-48l-139-18 59 126c-15 8-33 12-51 13-77 4-143-54-147-131-5-77 54-144 131-148 77-4 143 55 148 132 0 9 0 17-1 26z m-254 5c1 14 13 25 27 24 14 0 25-13 24-27-1-14-13-25-27-24-14 1-25 13-24 27z m40-87c-9 0-16 8-16 18 1 9 9 16 18 16 10-1 17-9 16-18 0-10-8-17-18-16z m29 146c0 14 12 25 27 24 14-1 24-13 24-27-1-14-13-25-27-24-14 1-25 13-24 27z m68-158c-1-14-13-25-27-24-15 1-25 13-25 27 1 14 13 25 27 24 15 0 25-13 25-27z m49 23c-9 1-16 9-16 18 1 10 9 17 18 16 10 0 17-8 16-18 0-9-8-16-18-16z m117 42c-6-103-95-183-199-177-103 6-182 95-176 198 6 104 95 183 198 177 24-1 48-7 69-17l-10-21c-18 9-39 14-60 15-91 6-169-64-175-155-5-91 65-169 156-174 91-5 169 64 174 155 1 11 0 21-1 31l22 3c2-11 2-23 2-35z"/>
<glyph unicode="&#122;" d="M239 242c1-1 2-2 3-3 4-5 6-13 4-22 0-3-1-5-2-7l-18 0c1 2 1 4 2 5 2 12 0 22-6 28-1 1-2 2-3 3-10 10-15 14-2 30 5 8 7 15 5 21 0 2-1 3-2 5l14 2c3-1 6-4 7-8 1-5-1-10-5-16-15-21-7-28 3-38z m21 39c-15-21-7-29 3-38 1-1 2-2 3-3 4-5 6-13 4-22 0-3-1-6-2-8l-18 0c1 2 2 4 2 5 2 12 0 22-6 28-1 1-2 2-3 3-10 10-14 14-2 30 5 8 7 15 6 21-1 4-3 6-5 9l12 2c4-3 10-7 11-12 1-4-1-9-5-15z m129 60c0 2-3 4-6 3l-203-41c-3 0-5-3-4-5 0-2 3-4 6-3l31 5c2-1 3-2 3-4 2-5 0-10-4-16-16-21-8-28 2-38 1-1 2-2 3-3 5-5 7-13 5-22-1-3-1-5-2-7l-60 0c0-28 16-52 40-66l93 0c24 14 40 38 40 66l-59 0c1 2 2 4 2 6 2 11 0 22-6 28-1 1-2 2-3 3-10 9-14 14-2 30 5 8 7 14 6 21-2 5-5 9-8 11l123 23c3 0 5 3 4 5z m-7 30l-2 4c-1 2-3 4-6 3l-199-56c-3 0-4-3-4-5 1-2 4-4 6-3l201 52c3 0 4 3 4 5z m-177-248l84 0 0 13-84 0z m51-106c-132 0-239 107-239 239 0 132 107 239 239 239 132 0 239-107 239-239 0-132-107-239-239-239z"/>
<glyph unicode="&#65;" d="M198 248c-9 1-16 8-15 17 0 9 8 16 17 15 8 0 15-8 15-17-1-9-8-15-17-15z m10-37c-6 0-10 5-10 11 0 6 5 10 11 10 6-1 11-6 10-12 0-5-5-10-11-9z m33 74c-9 0-16 8-15 17 0 8 8 15 16 15 9-1 16-9 15-17 0-9-8-16-16-15z m10-96c-9 0-15 8-15 16 1 9 8 16 17 15 9 0 15-8 15-16-1-9-8-16-17-15z m48 29c-6 0-11 5-10 11 0 6 5 10 11 10 6 0 10-5 10-11 0-6-5-11-11-10z m41 74c-5 0-10 5-10 11 1 6 6 10 12 10 5-1 10-6 10-11-1-6-6-11-12-10z m-1 90l-6-12c32-15 54-45 59-80l14 2c-6 40-31 74-67 90z m-49-105l86 11c-4 30-23 55-49 67z m51-15l-86-12 36 79c-9 5-20 7-31 8-48 3-89-34-92-82-3-48 34-89 82-91 48-3 89 34 91 81 1 6 0 11 0 17z m-80 105c-64 3-119-46-123-110-3-64 46-119 110-123 64-4 119 45 123 110 0 7 0 14-1 22l-14-2c1-7 1-13 1-19-3-57-52-100-108-97-57 3-100 52-97 108 4 57 52 100 108 97 14-1 27-4 38-10l6 13c-13 6-27 10-43 11z m-5-350c-132 0-239 107-239 239 0 132 107 239 239 239 132 0 239-107 239-239 0-132-107-239-239-239z"/>
<glyph unicode="&#66;" d="M359 312c6-17 15-25 22-32 13 9-9 42-22 32z m-170-68c-18-3-12-41 6-38 6 10 10 23-6 38z m-23 7c46-1 62 40 90 65 16-9 32-8 48-9 1-11 5-20 21-27 6 4 4 14-1 22l39-12c-3 17-5 41-13 56 16-5 30-18 39-36 11-12 13-22 13-30 7-10 11-21 9-35l0 0c6-16 4-27 1-35 5-15-4-28-4-32 2-18-8-29-12-37 0-9-4-17-17-32-3-7-5-13-17-23-4-13-17-24-34-35-20-18-26-21-62-3-10 0-21 7-31 17-13 5-25 12-34 23-10 3-20 11-26 23-16 11-29 25-36 45-13 18-21 43-21 66-3 15-5 29 1 43 5 21 15 41 30 53-3-12-6-24-10-37-4-14-8-28-8-30z m221-41c18 3 13 41-4 39-3-19-1-30 4-39z m-15-66c15-5 28 31 12 37-11-14-14-26-12-37z m-13 97c15 6 1 42-14 37-7-21 3-30 14-37z m-28-159c15-6 31 29 16 36-12-13-15-24-16-36z m16 100c16 2 11 41-5 39-11-15-7-27 5-39z m-43-47c16-2 19 36 3 38-13 1-19-35-3-38z m-39-51c-10-13 21-36 32-23-5 8-14 17-32 23z m8 20c2 14-2 24-22 33-14-10 8-42 22-33z m-13 86c13 5 3 40-13 36-15-5-1-41 13-36z m-55-62c-14-11 11-41 25-30-3 10-9 20-25 30z m-1 21c-1 11-5 22-18 35-16-9 3-43 18-35z m-59 67c-16-5-4-42 12-37-1 18-6 29-12 37z m268 184c-43-9-70-12-114-35 9-14 27-23 29-37-21 7-52-1-70 20-37-14-55-72-91-72 11 34 3 56 34 76-40 9-61 0-104-17 8 13 42 42 84 57-35 4-26 41-48 56 32 2 67-17 108-55-6 28 20 54 62 76-14-26 10-45-8-71 19 14 75 17 118 2z"/>
<glyph unicode="&#67;" d="M294 98l-30-26-9 29-9-28-28 25 38 34z m-20-61c-4 0-8-1-12-1l-12 0c-4 0-8 1-12 1l18 17z m-24 22l-22-20c-3 1-6 1-9 2l-6 20-5-15c-10 5-20 11-28 19l32 28z m-44 39l-27-25-10 31-6-17c-5 9-9 20-12 31l17 14z m44 40l-28-26-10 31-10-31-28 26 38 34z m-86 77l-14-13 0 12c0 4 0 9 1 13z m-2-77l-12-11c0 3 0 6 0 10l0 12z m44 39l-28-25-9 29-10-30-9 8 0 32 20 19z m88 0l-29-26-10 31-10-30-27 25 38 34z m-44 39l-28-24-9 30-10-32-27 25 38 34z m-42 38l-30-27-9 30-9-28-8 7c4 18 13 33 25 46z m124-189c-8-8-17-14-27-19l-5 15-6-19c-3-1-7-2-10-3l-22 20 38 34z m6 73l-28-26-10 29-9-29-29 26 38 34z m23-20c-3-12-7-23-13-33l-5 17-10-29-27 25 38 34z m1 31l0-12c0-4 0-7 0-10l-12 11z m0 65l0-12-14 13 14 12c0-4 0-9 0-13z m0-23l0-32-10-9-9 30-9-28-28 25 36 33z m-26 24l-27-25-10 32-10-30-27 24 36 33z m24 21l-8-7-9 28-10-29-29 26 31 28c12-13 21-28 25-46z m-68 18l-28-25-9 27-8-26-27 24 36 33z m38 34l-22-19-9 29-10-31-27 25 22 20c17-4 33-13 46-24z m-80 4l-27-25-10 30-9-28-22 19c13 11 29 20 46 24z m24 21l-18-16-18 16c4 1 8 1 12 1l12 0c4 0 8 0 12-1z m86 35c-51 3-72-18-80-28-6 1-12 1-18 1l-12 0c-6 0-12 0-18-1-8 10-29 31-80 28 0 0 30 23 73 18-10 8-37 27-74 23 0 0 31 29 68 17 0 0-13 27-61 37 0 0 36 14 71-3 0 0-9 32-35 50 0 0 31 5 62-30 31 35 62 30 62 30-26-18-35-50-35-50 35 17 71 3 71 3-48-10-61-37-61-37 37 12 68-17 68-17-37 4-64-15-74-23 43 5 73-18 73-18z"/>
<glyph unicode="&#68;" d="M192 231c3-4 6-10 7-21-9-3-16 18-7 21z m25 17c10-9 8-17 4-22-11-2-14 20-4 22z m-1-35c7-7 10-14 10-20-9-5-19 15-10 20z m11-32c9-6 12-12 14-18-8-6-22 11-14 18z m32 35c-9-3-17 18-8 21 9 2 15-18 8-21z m-6-31c12-5 14-11 13-18-8-6-21 13-13 18z m8-30c11-4 16-8 19-14-7-7-25 7-19 14z m23 29c-9 2-6 23 2 23 9-1 7-24-2-23z m39 6c-1 6 1 13 7 21 9-3 2-24-7-21z m-23-36c0 7 2 13 9 20 8-3-1-24-9-20z m8 58c-6 6-9 14-2 22 9 1 12-21 2-22z m8 34c-7 4-13 9-8 21 8 3 16-18 8-21z m0 41c7 6 20-13 12-19-4 4-9 9-12 19z m16-59c-3 5-4 12-3 22 10 2 13-20 3-22z m13 20l0 0c2 8-1 15-4 21-1 4-2 10-8 17-5 10-13 18-23 21 5-9 6-23 8-33l-23 7c3-4 5-10 1-13-9 4-12 10-12 16-9 1-19 0-28 5-16-14-26-38-52-38l-20 1c0 1 2 9 4 17 2 7 4 14 6 22-8-8-14-19-17-31-3-8-3-16-1-25 0-13 5-28 13-38 3-12 11-20 20-26 4-7 9-12 15-13 6-7 12-11 20-14 6-5 12-10 18-10 21-10 24-9 36 2 9 6 17 13 19 20 7 6 8 9 10 14 8 8 10 13 10 18 2 5 8 11 7 21 0 3 5 10 2 19 2 5 3 11-1 20z m-67 89c11 15-3 26 5 40-24-12-39-27-35-44-24 23-45 34-63 33 13-9 7-30 28-33-24-9-44-25-49-33 25 10 37 15 60 10-18-12-13-24-20-44 21 0 32 33 53 42 11-13 28-8 41-12-2 8-12 13-17 22 26 13 41 14 66 20-25 9-58 7-69-1z m-22-320c-132 0-239 107-239 239 0 132 107 239 239 239 132 0 239-107 239-239 0-132-107-239-239-239z"/>
<glyph unicode="&#69;" d="M319 196l-7-7 7-7c0 2 0 4 0 6z m0 25l-12 10-21-19 16-15 5 17 6-18 6 6 0 19z m0 13c0 3 0 5 0 8l-9-7 9-8 0 7z m-5 136c0 0-21 8-42-2 0 0 5 19 21 30 0 0-18 3-37-18-19 21-37 18-37 18 16-11 21-30 21-30-21 10-42 2-42 2 28-6 36-22 36-22-22 7-40-10-40-10 22 2 38-9 44-14-26 3-44-11-44-11 31 2 43-10 48-16 3 0 7 1 10 1l8 0c3 0 7-1 10-1 5 6 17 18 48 16 0 0-18 14-44 11 6 5 22 16 44 14 0 0-18 17-40 10 0 0 8 16 36 22z m-121-136l0-7 9 8-9 7c0-3 0-5 0-8z m0-32l5-5 6 18 6-18 16 15-21 19-12-10 0-19z m0-14c0-2 0-4 0-6l7 7-7 7z m8-29l3 10 6-18 16 15-22 20-10-9c1-7 4-13 7-18z m26-25l3 10 4-12c2-1 4-1 5-2l14 12-23 20-19-16c5-5 10-9 16-12z m25-5l8 0c2 0 4 0 7 0l-11 10-11-10c3 0 5 0 7 0z m26 3l4 12 3-9c6 2 11 6 16 11l-19 16-23-20 14-12c2 1 3 1 5 2z m-19 57l18-15 5 17 6-17 17 15-23 20z m22 66l-22-19 17-15 5 18 6-19 17 15z m3 3l18-16 5 18 6-17 5 4c-3 11-8 20-15 28z m-25 22l16-14 6 18 6-18 13 12c-8 7-17 12-27 14z m-3 3l11 10c-3 0-5 0-7 0l-8 0c-2 0-4 0-7 0z m-31-17l5 18 6-18 17 14-14 12c-10-2-19-7-27-14z m-15-24l18 16-19 17c-7-8-12-17-15-28l5-4 5 17z m20-3l6-18 17 15-22 19-23-20 16-15z m6-65l17 15-23 20-23-20 17-15 6 18z m-3-8l17-15 5 16 6-17 18 16-23 20z m28 77l16 15-21 19-21-19 15-14 5 15z m-28-31l17-14 5 17 6-18 18 15-23 21z m74-44l4-10c3 6 6 12 7 19l-10 9-22-20 16-15z m-51-151c-132 0-239 107-239 239 0 132 107 239 239 239 132 0 239-107 239-239 0-132-107-239-239-239z"/>
<glyph unicode="&#70;" d="M442 88l0 102 10 0c43-111-1-105-10-102z m10 129l-10 0 0 193c38-11 53-125 10-193z m-193 172c-82 0-149-64-149-143 0-79 67-144 149-144 82 0 149 65 149 144 0 79-67 143-149 143z m0-273c-74 0-135 58-135 130 0 71 61 130 135 130 74 0 135-59 135-130 0-72-61-130-135-130z m117 130c0-62-53-113-117-113-64 0-116 51-116 113 0 62 52 112 116 112 64 0 117-50 117-112z m-296-148c1-15-28-15-27 0l5 183c6-2 11-2 17 0z m-13 210c-37 0-41 96-21 100l0-57c0-9 14-9 14 0l0 48c0 15 13 15 13 0l0 0 0-48c0-9 14-9 14 0l0 57c20-4 17-100-20-100z"/>
<glyph unicode="&#71;" d="M370 137c-5-7-12-18-13-21l-202 0c-1 3-8 14-13 21z m110 44c-19-9-55-24-109-34l-230 0c-54 10-90 25-109 34z m-35 82c-22-20-63-37-93-47 6 10 10 20 13 28 24 10 50 22 65 36 13 11 20 25 18 37 0 10-6 18-13 22-23 14-52-10-53-10 0 0 4 22 6 30 14 7 38 13 59 0 15-8 22-23 24-39 2-21-7-41-26-57z m-65 110c-3-19-14-87-19-107-4-16-13-53-45-75l-127 0c-32 22-41 59-45 75-5 20-16 88-19 107z"/>
<glyph unicode="&#72;" d="M258 311c-37 0-67-29-67-64 0-36 30-64 67-64 37 0 67 28 67 64 0 35-30 64-67 64z m0-138c-43 0-77 33-77 74 0 41 34 74 77 74 42 0 77-33 77-74 0-41-35-74-77-74z m105 168l0-111 5 0c25 40 16 105-5 111z m-105-12c-47 0-86-37-86-82 0-45 39-82 86-82 47 0 85 37 85 82 0 45-38 82-85 82z m-99 11l0-33c0-5-8-5-8 0l0 28 0 0c0 8-7 8-7 0l0-28c0-5-8-5-8 0l0 33c-12-3-10-58 12-57 21 0 23 55 11 57z m-4-178l-3 105c-3-1-6-1-9 0l-3-105c-1-8 16-8 15 0z m208-6c5-1 30-5 5 59l-5 0z m-107-139c-132 0-239 107-239 239 0 132 107 239 239 239 132 0 239-107 239-239 0-132-107-239-239-239z"/>
<glyph unicode="&#73;" d="M116 205c11-6 34-15 68-22l144 0c34 7 57 16 68 22-20 0-260 0-280 0z m275 87c-1 10-6 19-15 24-14 8-28 5-38 0 0-5-3-18-3-18 0 0 19 14 33 6 5-3 8-8 9-14 0-8-4-16-12-23-9-9-26-17-41-22-2-6-4-12-8-18 19 6 45 17 59 29 11 10 17 23 16 36z m-217 33c2-12 9-54 12-67 2-10 8-33 28-47l80 0c20 14 25 37 28 47 3 13 10 55 12 67-7 0-154 0-160 0z m19-161c3 0 123 0 126 0 1 2 5 9 8 13-9 0-133 0-142 0 3-4 7-11 8-13z m63-147c-132 0-239 107-239 239 0 132 107 239 239 239 132 0 239-107 239-239 0-132-107-239-239-239z"/>
<glyph unicode="&#74;" d="M393 131c-2 7-38 140-43 159-4 18-17 22-31 22-5 0-24 0-46 0l0 17c86 8 108 72 108 72l-248 0c0 0 19-67 111-72l0-17c-21 0-38 0-43 0-14 0-26-4-31-22-5-19-41-152-43-159-3-9-2-22 17-22 2 0 7 0 14 0l0-10 202 0 0 10c8 0 13 0 16 0 19 0 20 13 17 22z m-133 164c47 0 84-38 84-84 0-47-37-84-84-84-46 0-84 37-84 84 0 46 38 84 84 84z m-48-47l-9 6-3-3 9-6c1 1 2 2 3 3z m23 19l-4 9-4-2 5-9c1 0 2 1 3 2z m-36-56c0 0 0 1 0 1l-11 0 0-4 11 0c0 1 0 2 0 3z m127 32l-2 4-11-6c1-1 2-3 2-4z m-25 29l-4 2-6-10c1-1 2-2 4-3z m-38 0l0 11-4 0 0-11c0 0 1 0 1 0 1 0 2 0 3 0z m33-126l-6 12c-2-1-3-2-4-2l6-12z m26 24l-11 7c-1-1-2-2-3-3l11-8z m-1 41c0-1 0-2 0-3l13 0 0 4-13 0c0 0 0-1 0-1z m-62-61l0-13 4 0 0 13c-1 0-2 0-3 0 0 0-1 0-1 0z m-53 33l-10-6 2-4 10 6c-1 1-1 2-2 4z m26-26c-2 1-3 1-4 2l-6-10 3-2z m2 11l4-2 21 36c1-1 2-1 2-1 8 0 14 6 14 14 0 7-6 13-14 13-7 0-13-6-13-13 0-5 2-8 5-11z m27 50c3 0 4-1 4-3 0-3-1-4-4-4-2 0-3 1-3 4 0 2 1 3 3 3z"/>
<glyph unicode="&#75;" d="M322 53c3 0 5 1 6 3l44 103c1 3-1 6-4 7-4 1-7-1-8-3l-44-104c-1-2 1-5 4-6 1 0 2 0 2 0z m-140 3c1-2 3-3 6-3 0 0 1 0 2 0 3 1 5 4 4 6l-44 104c-1 2-4 4-8 3-3-1-5-4-4-7z m22-16c-20 0-41 7-46 16l-66 141c21-3 47-16 77-10 0 0 103 12 148 2 0 0 50 2 98 8l-69-141c-5-9-25-16-45-16z m114 127c0 3-2 5-5 6-4 0-7-2-8-4l-24-110c-1-3 2-6 5-6 1 0 1 0 1 0 3 0 6 1 7 4z m-60-114c3 0 6 2 6 5l-5 115c0 3-4 4-7 5-3 0-6-3-6-5l5-116c0-2 3-4 7-4 0 0 0 0 0 0z m-34 0c3 0 5 3 5 6l-24 110c-1 2-4 4-8 4-3-1-6-3-5-6l24-110c1-3 4-4 7-4 0 0 0 0 1 0z m180 304c0 0 104-47 26-119-14-9-31-13-49-16-38-5-78-1-78-1-35 10-116-2-116-2-24-6-44-6-60-4-16 3-29 9-38 15-31 19-74 144 29 152 0 0 65 120 175 40 0 0 106 50 111-65z m-38-82c23-6 18 6 15 18-3 12-13 6-13 6 0 0-24-18-2-24z m-17 94c0 13-17 22-17 22 0 0-54-6-23-36 32-31 39 1 40 14z m-51-59c0 0-7 16-19 15-13 0-62-6-27-40 36-34 46 25 46 25z m-106 42c31-8 20 25 20 25 0 0-10 14-19 9-8-5-33-25-1-34z m-23-62c0 0-7 21-17 21-10 0-53-3-21-33 32-30 38 12 38 12z"/>
<glyph unicode="&#76;" d="M260 295c-46 0-84-38-84-84 0-47 38-84 84-84 47 0 84 37 84 84 0 46-37 84-84 84z m-1-12l4 0 0-11c-1 0-2 0-3 0 0 0-1 0-1 0z m-28-7l4-9c-1-1-2-2-3-2l-5 9z m-43-64l11 0c0 0 0-1 0-1 0-1 0-2 0-3l-11 0z m10-39l-2 4 10 6c1-2 1-3 2-4z m11 72l-9 6 3 3 9-6c-1-1-2-2-3-3z m16-98l-3 2 6 10c1-1 2-1 4-2z m38-10l-4 0 0 13c0 0 1 0 1 0 1 0 2 0 3 0l0-13z m-2 64c0 0-1 0-2 1l-21-36-4 2 19 36c-3 3-5 6-5 11 0 7 6 13 13 13 8 0 14-6 14-13 0-8-6-14-14-14z m31-57l-6 12c1 0 2 1 4 2l6-12z m3 117c-2 1-3 2-4 3l6 10 4-2z m24-95l-11 8c1 1 2 2 3 3l11-7z m15 42l-13 0c0 1 0 2 0 3 0 0 0 1 0 1l13 0z m-8 35l-11-6c0 1-1 3-2 4l11 6z m-65-25c-2 0-3-1-3-3 0-3 1-4 3-4 3 0 4 1 4 4 0 2-1 3-4 3z m-5 277c-132 0-239-107-239-239 0-132 107-239 239-239 132 0 239 107 239 239 0 132-107 239-239 239z m120-386c-3 0-8 0-16 0l0-10-202 0 0 10c-7 0-12 0-14 0-19 0-20 13-17 22 2 7 38 140 43 159 5 18 17 22 31 22 5 0 22 0 43 0l0 17c-92 5-111 72-111 72l248 0c0 0-22-64-108-72l0-17c22 0 41 0 46 0 14 0 27-4 31-22 5-19 41-152 43-159 3-9 2-22-17-22z"/>
<glyph unicode="&#77;" d="M318 196c1 1 3 2 5 2 2-1 3-3 2-4l-26-62c0-1-2-2-3-2-1 0-1 0-2 0-2 1-3 2-2 4z m-28 6c2-1 3-2 3-4l-15-65c0-2-2-3-3-3-1 0-1 0-1 0-2 0-3 2-3 4l14 65c1 2 3 3 5 3z m-36 3c2 0 4-1 4-3l3-69c0-1-2-3-4-3 0 0 0 0 0 0-2 0-4 1-4 3l-3 69c0 1 2 3 4 3z m-33-3c2 0 4-1 4-3l15-65c0-2-1-4-3-4 0 0-1 0-1 0-2 0-3 1-4 3l-14 65c-1 2 1 3 3 4z m-5-72c0 0 0 0-1 0-1 0-3 1-3 2l-26 62c-1 1 0 3 2 4 2 0 4-1 5-2l26-62c0-2-1-3-3-4z m-35 135c-19 18 7 20 13 20 6-1 10-13 10-13 0 0-4-25-23-7z m37 44c-19 5-4 17 1 20 5 3 11-5 11-5 0 0 7-20-12-15z m36-40c-21 20 8 24 15 24 8 0 12-9 12-9 0 0-6-36-27-15z m34 42c-19 18 14 21 14 21 0 0 10-5 9-13 0-8-4-27-23-8z m34-48c-14 3 1 14 1 14 0 0 6 4 8-3 1-7 5-15-9-11z m22 49c-3 69-66 39-66 39-65 48-104-24-104-24-62-5-36-80-18-91 6-4 13-7 23-9 10-1 22-1 36 2 0 0 48 7 69 1 0 0 24-2 47 1 10 2 21 5 29 10 47 43-16 71-16 71z m-146-180c3-5 15-10 27-10l58 0c12 0 24 5 27 10l41 84c-29-3-59-5-59-5-26 6-88-1-88-1-18-3-33 5-46 6z m58-115c-132 0-239 107-239 239 0 132 107 239 239 239 132 0 239-107 239-239 0-132-107-239-239-239z"/>
<glyph unicode="&#78;" d="M308 292l-94 149c-5 7-11 7-17 1l-97-86c-7-6-6-13-1-18l136-113c8-6 15-5 21 0l52 48c6 5 6 10 0 19z m-20-9l-41-37c-4-4-10-5-16 0l-107 89c-5 4-5 9 0 14l76 68c6 5 10 5 14-1l74-117c5-7 5-11 0-16z m30-15l-58-53c30-22 80 20 58 53z m-29-56c-2 0-4 2-4 4 0 2 2 4 4 4 2 0 4-2 4-4 0-2-2-4-4-4z m17 11c-2 0-4 2-4 4 0 2 2 4 4 4 2 0 4-2 4-4 0-2-2-4-4-4z m11 17c-3 0-4 1-4 4 0 2 1 4 4 4 2 0 3-2 3-4 0-3-1-4-3-4z m26-34c0-5-4-9-9-9-5 0-9 4-9 9 0 5 4 9 9 9 5 0 9-4 9-9z m-12-34c0-5-4-9-8-9-5 0-9 4-9 9 0 4 4 8 9 8 4 0 8-4 8-8z m23-12c0-5-4-9-9-9-4 0-8 4-8 9 0 5 4 9 8 9 5 0 9-4 9-9z m-4-29c0-4-4-8-9-8-5 0-8 4-8 8 0 5 3 9 8 9 5 0 9-4 9-9z m31-17c0-5-4-8-8-8-5 0-9 3-9 8 0 5 4 9 9 9 4 0 8-4 8-9z"/>
<glyph unicode="&#79;" d="M335 311c-19 0-34-15-34-33 0-19 15-34 34-34 18 0 33 15 33 34 0 18-15 33-33 33z m-13 60l-132 0 0-12 60 0 0-54c-15-2-27-15-27-31 0-17 14-31 31-31 18 0 31 14 31 31 0 15-10 27-23 30l0 55 60 0z m-178-93c0-18 14-33 33-33 18 0 33 15 33 33 0 19-15 33-33 33-19 0-33-14-33-33z m75-105c18 0 32 14 32 31 0 18-14 32-32 32-17 0-31-14-31-32 0-17 14-31 31-31z m36-70c19 0 34 15 34 34 0 18-15 33-34 33-18 0-33-15-33-33 0-19 15-34 33-34z m71 102c0 18-14 33-32 33-18 0-33-15-33-33 0-18 15-32 33-32 18 0 32 14 32 32z m-70-188c-132 0-239 107-239 239 0 132 107 239 239 239 132 0 239-107 239-239 0-132-107-239-239-239z"/>
<glyph unicode="&#80;" d="M386 441c-1-2-7-2-12-2l-30 6c-1 0-17 3-23-7-6-9 5-22 6-23l18-24c3-3 6-9 5-10-1-2-7-2-11-2l-31 6c-1 0-17 3-23-7-5-9 5-22 6-23l9-12 10-12c3-3 6-9 5-11-1-1-8-1-12-1l-15 3-15 3c-2 0-17 3-23-7-6-9 4-22 6-23l9-12 9-12c3-3 6-9 5-11-1-1-7-1-11-1l-16 3-15 3c-1 0-17 3-23-7-6-9 5-22 6-23l19-24c3-3 5-9 4-11-1-1-7-2-11-1l-30 6c-2 0-18 3-23-7-6-9 4-22 5-23l10-12 9-12c3-3 6-9 5-11-1-1-7-2-12-1l-15 3-15 2c-1 1-12 3-19-2-7 15-6 33 3 48l147 248c15 26 48 34 73 19 6-3 11-8 16-13 0-2 0-3 0-3z m-207-333l-46-74-16 10 46 73c2-2 3-3 5-4 2-1 9-4 11-5z m213 324c7-15 6-33-3-48l-147-248c-15-26-48-34-73-19-7 4-13 9-17 15 0 0 1 0 1 1 1 1 7 2 11 1l30-6c2 0 18-3 23 7 6 9-4 22-5 23l-19 24c-3 3-6 9-5 11 1 1 7 2 12 1l30-6c1 0 17-3 23 7 6 10-5 22-6 23l-9 12-10 12c-3 3-5 9-4 11 1 1 7 2 11 1l30-6c2 0 18-3 23 7 6 10-4 22-5 23l-19 24c-3 3-6 9-5 11 1 1 7 2 12 1l30-5c2-1 17-4 23 6 6 10-4 22-6 23l-18 24c-3 4-6 9-5 11 1 1 7 2 11 1l16-3 15-2c1-1 17-4 23 6 5 10-5 22-6 23l-9 12-10 12c-3 4-5 9-4 11 1 1 7 2 11 1l15-3 15-2c2-1 13-3 20 3z"/>
<glyph unicode="&#81;" d="M326 443c0 0-100 18-1-66 0 0-71 11-106 33 0 0 43 99 107 33z m11-89c16 0 23-14 15-23-8-9-12-11-12-11 0 0-148 21-158 27l1 9c0 0-4 46 53 22 56-24 84-24 101-24z m1-53c12-2 48-15 20-39l-203 4c0 0-46 71 45 54 91-16 126-16 138-19z m16-64l-45-179c-3-11-14-19-24-19l-52 0c-11 0-22 8-25 19l-44 179z"/>
<glyph unicode="&#82;" d="M351 330c-13 0-24 11-24 24 0 13 11 23 24 23 13 0 24-10 24-23 0-13-11-24-24-24z m0 54c-17 0-30-14-30-30 0-8 3-15 8-21l-28-35-13 11c-6 4-14 3-19-2l-7-10c-5-5-4-14 2-18l31-25c5-5 13-4 18 2l8 9c4 6 3 14-2 19l-13 10 28 35c5-3 11-5 17-5 16 0 30 13 30 30 0 16-14 30-30 30z m-100-111c-3 3-7 3-9 0-1-2 0-6 2-8l41-33c3-2 7-2 9 0 2 2 1 6-2 8z m-28-23l-7-10c-5-5-4-14 2-18l31-25c5-5 13-4 18 2l8 9c4 6 3 14-2 19l-31 25c-6 4-14 3-19-2z m-27-33c-1-3 0-7 2-9l41-33c3-2 7-2 9 0 2 2 1 6-2 9l-41 32c-3 3-7 3-9 1z m-19-24l-7-10c-5-5-4-14 2-18l13-11-23-27c-1-2-1-4 0-5 2-2 4-1 5 0l23 28 13-10c5-5 13-4 18 2l8 9c4 6 3 14-2 19l-31 25c-6 4-14 3-19-2z m79-176c-132 0-239 107-239 239 0 132 107 239 239 239 132 0 239-107 239-239 0-132-107-239-239-239z"/>
<glyph unicode="&#83;" d="M235 312c0 0 0 0 0 0 7 0 11 6 17 13l-3 2c-4-6-10-7-15-8-8 0-14 7-14 7l-3-1c1-1 7-13 18-13z m-11-29l-2-1c0 0 6-12 17-12 0 0 0 0 1 0 6 0 11 5 16 13l-3 1c-4-6-9-7-14-7-9 0-15 6-15 6z m25-83l-2-1c0-1 6-13 17-13 0 0 0 0 0 0 7 0 11 6 17 13l-3 2c-4-6-9-7-14-7-9-1-15 6-15 6z m-17 28c1 0 1 0 1 0 6 1 11 6 16 14l-2 1c-5-6-10-7-15-7-8 0-15 6-15 6l-2-1c0-1 6-13 17-13z m-54 55l-2-1c1 0 7-12 18-12 0 0 0 0 0 0 7 0 11 5 16 13l-2 1c-5-6-10-7-15-7-8 0-14 6-15 6z m111-13c0 0 0 0 0 0 7 0 11 5 17 13l-3 1c-4-6-9-7-14-7-9 0-15 6-15 6l-2-1c0 0 6-12 17-12z m45 0c0 0 0 0 1 0 6 0 11 5 16 13l-3 1c-4-6-9-7-14-7-9 0-15 6-15 6l-2-1c0 0 6-12 17-12z m8 42c0 0 0 0 1 0 6 0 11 6 16 13l-3 2c-4-6-9-7-14-8-9 0-15 7-15 7l-2-1c0-1 6-13 17-13z m-162 0c0 0 0 0 0 0 7 0 11 6 16 13l-2 2c-5-6-10-7-15-8-8 0-14 7-14 7l-3-1c1-1 7-13 18-13z m109-3c0 0 0 0 0 0 7 0 11 6 17 13l-3 2c-4-6-9-8-14-8-9 0-15 7-15 7l-2-2c0 0 6-12 17-12z m-8-81c0 0 0 0 1 0 6 1 11 6 16 14l-3 1c-4-6-9-7-14-7-9 0-15 6-15 6l-2-1c0-1 6-13 17-13z m-84 17c-4-6-10-7-15-7-8 0-14 6-14 6l-3-1c1-1 7-13 18-13 0 0 0 0 0 0 7 1 11 6 16 14z m145-9c-9 0-15 6-15 6l-2-1c0-1 6-13 17-13 0 0 0 0 1 0 6 1 11 6 16 14l-3 1c-4-6-9-7-14-7z m-176 51c-4-6-10-7-15-7-8 0-14 6-14 6l-3-1c1-1 7-13 18-13 0 0 0 0 0 0 7 1 11 6 17 14z m151-93c-9-1-15 6-15 6l-2-1c0-1 6-13 17-13 0 0 0 0 0 0 7 0 11 6 17 13l-3 2c-4-6-9-7-14-7z m-61 301c-132 0-239-107-239-239 0-132 107-239 239-239 132 0 239 107 239 239 0 132-107 239-239 239z m14-97c4 7 10 12 17 15 8 3 16 5 25 3 8-2 17-6 21-16-8-6-12-10-17-14-4-3-8-6-13-8-5-2-11-4-17-4-7-1-14-1-24 0 0 10 3 18 8 24z m101-135c-2 0-4 0-6 1 3-5 6-11 6-17 0-15-12-28-27-28-3 0-5 1-8 2 5-5 8-12 8-19 0-15-12-27-27-27-4 0-7 0-10 2 6-5 10-13 10-21 0-15-12-28-27-28-3 0-6 1-8 2 5-5 8-12 8-19 0-15-13-27-28-27-15 0-27 12-27 27 0 7 3 14 8 19-3-1-5-2-8-2-15 0-27 13-27 28 0 8 4 16 10 21-3-2-6-2-10-2-15 0-27 12-27 27 0 7 3 14 8 19-3-1-5-2-8-2-15 0-27 13-27 28 0 6 2 12 6 17-2-1-4-1-6-1-15 0-28 12-28 27 0 15 13 27 28 27 1 0 2 0 3 0-2 4-4 9-4 14 0 15 13 27 28 27 15 0 27-12 27-27 0 15 12 27 27 27 6 0 12-2 17-6l-3 13c-4 0-8 0-11 0-7 0-12 1-18 2-5 2-10 4-15 6-5 2-10 5-19 9 3 9 11 14 19 17 8 2 16 2 24 0 5-1 11-4 15-8l-2 13c22-13 22-45 19-65 1-3 1-5 1-8 0 15 12 27 27 27 15 0 27-12 27-26 1 14 13 26 28 26 15 0 27-12 27-27 0-5-2-10-4-14 1 0 2 0 4 0 15 0 27-12 27-27 0-15-12-27-27-27z m3 17c-9 0-15 6-15 6l-3-1c1-1 7-13 18-13 0 0 0 0 0 0 7 1 11 6 17 14l-3 1c-4-6-10-7-14-7z m-114-126l-3 1c-4-6-9-7-14-7-9 0-15 6-15 7l-2-2c0 0 6-12 17-12 0 0 0 0 0 0 7 0 12 5 17 13z m-32 47c-4-6-10-7-15-7-8-1-14 6-14 6l-3-1c1-1 7-13 18-13 0 0 0 0 0 0 7 0 11 6 17 13z m56-53c-9 0-15 6-15 7l-2-2c0 0 6-12 17-12 0 0 0 0 0 0 7 0 11 5 17 13l-3 1c-4-6-10-7-14-7z m-20-46c-9 0-15 6-15 6l-2-1c0-1 6-13 17-13 0 0 0 0 0 0 7 1 11 6 17 14l-3 1c-4-6-9-7-14-7z"/>
<glyph unicode="&#84;" d="M201 361l0-28 25 15c-6 7-15 12-25 13z m-8-42l0 0-29-18c7-10 17-16 29-18z m0 42c-10-1-19-6-26-14l26-19z m-35-39c0-5 1-9 3-14l26 16-24 17c-3-6-5-12-5-19z m73 20l-30-18 0-1 7-5c-1-3-1-6-1-9l-6 4 0-30c1 1 3 1 4 1 0-4 0-9 1-13-3 0-6-1-10-1-29 0-53 24-53 54 0 29 24 53 53 53 29 0 52-22 54-50l-14 0c-1 5-2 10-5 15z m-19-69c-1 4-1 7-1 12l0 1c6 2 11 5 15 9l-14 10c0 3 1 6 1 9l17-13c4 6 6 13 6 20 4 0 9 0 14 0-2-23-17-42-38-48z m45 48c30 0 63 1 66 1 1-6 3-21 3-38 0-6 0-12-1-18l-110 0c24 7 41 29 42 55z m71 4l0 2-3 0-68 0c-1 32-28 58-61 58-33 0-61-28-61-61 0-34 28-61 61-61 4 0 7 0 10 1 3-22 10-38 21-49 15-15 32-15 38-15l0-64-1 0-41-16 0-8 99 2 0 6-42 16-1 0 0 64c14 1 25 7 34 16 30 33 16 106 15 109z m-72-308c-132 0-239 107-239 239 0 132 107 239 239 239 132 0 239-107 239-239 0-132-107-239-239-239z"/>
<glyph unicode="&#85;" d="M127 338c9-16 26-27 46-29l1 56 0 0z m-1 63c-5-9-8-19-8-30 0-7 1-15 4-22l41 24z m7 10l41-31 1 52c-16-1-31-9-42-21z m55 21l-1-45 41 23c-10 12-24 20-40 22z m119-259c22 1 40 9 54 24 49 52 29 168 28 173l0 4-4 0-109 2c-2 51-43 93-95 94-54 1-99-41-100-95-1-54 42-99 96-100 5 0 10 1 16 1 3-34 13-60 31-78 21-22 45-25 57-25l0-102 0 0-66-24 0-13 158 0 0 10-66 27z m-112 176l-9 7-1-48c2 0 4 1 7 1-1-7-1-14 0-20-5-1-10-2-15-1-47 1-85 39-84 86 1 48 40 85 87 84 46-1 82-37 84-82l-22 0c-1 9-3 17-7 24l-49-28 0-1 10-8c0-4-1-9-1-14z m6-40c0 1 0 1 0 1l0 2c9 3 17 8 24 14l-22 17c1 4 1 9 2 14l27-21c6 9 10 19 10 31 7 0 14 0 22 0-3-37-29-67-63-76 0 6 0 12 0 18z m6-29c38 11 66 45 69 86 47 0 101-1 105-1 1-9 4-33 4-61-1-8-1-18-2-27z"/>
<glyph unicode="&#86;" d="M398 290c0 15-12 27-27 27-2 0-3 0-4 0 2 4 4 9 4 14 0 15-12 27-27 27-15 0-27-12-28-26 0 14-12 26-27 26-15 0-27-12-27-27 0 15-12 27-27 27-15 0-27-12-27-27 0 15-12 27-27 27-15 0-28-12-28-27 0-5 2-10 4-14-1 0-2 0-3 0-15 0-28-12-28-27 0-15 13-27 28-27 2 0 4 0 6 1-4-5-6-11-6-17 0-15 12-28 27-28 3 0 5 1 8 2-5-5-8-12-8-19 0-15 12-27 27-27 4 0 7 0 10 2-6-5-10-13-10-21 0-15 12-28 27-28 3 0 5 1 8 2-5-5-8-12-8-19 0-15 12-27 27-27 15 0 28 12 28 27 0 7-3 14-8 19 2-1 5-2 8-2 15 0 27 13 27 28 0 8-4 16-10 21 3-2 6-2 10-2 15 0 27 12 27 27 0 7-3 14-8 19 3-1 5-2 8-2 15 0 27 13 27 28 0 6-2 12-6 17 2-1 4-1 6-1 15 0 27 12 27 27z m-71 36c0 0 6-7 15-7 5 1 10 2 14 8l3-2c-5-7-10-13-16-13-1 0-1 0-1 0-11 0-17 12-17 13z m-8-43c0 0 6-6 15-6 5 0 10 1 14 7l3-1c-5-8-10-13-16-13-1 0-1 0-1 0-11 0-17 12-17 12z m-45 40c0 0 6-7 15-7 5 0 10 2 14 8l3-2c-6-7-10-13-17-13 0 0 0 0 0 0-11 0-17 12-17 12z m0-40c0 0 6-6 15-6 5 0 10 1 14 7l3-1c-6-8-10-13-17-13 0 0 0 0 0 0-11 0-17 12-17 12z m-8-41c0 0 6-6 15-6 5 0 10 1 14 7l3-1c-5-8-10-13-16-14-1 0-1 0-1 0-11 0-17 12-17 13z m-2-48c5 0 10 1 14 7l3-2c-6-7-10-13-17-13 0 0 0 0 0 0-11 0-17 12-17 13l2 1c0 0 6-7 15-6z m-47 131l3 1c0 0 6-7 14-7 5 1 11 2 15 8l3-2c-6-7-10-13-17-13 0 0 0 0 0 0-11 0-17 12-18 13z m39-42c-5-8-10-13-16-13-1 0-1 0-1 0-11 0-17 12-17 12l2 1c0 0 6-6 15-6 5 0 10 1 14 7z m-39-41c0 0 7-6 15-6 5 0 10 1 15 7l2-1c-5-8-10-13-16-14 0 0 0 0-1 0-11 0-17 12-17 13z m-9 42l2-1c-5-8-9-13-16-13 0 0 0 0 0 0-11 0-17 12-18 12l2 1c1 0 7-6 15-6 5 0 10 1 15 7z m-43 42c0 0 6-7 14-7 5 1 10 2 15 8l2-2c-5-7-9-13-16-13 0 0 0 0 0 0-11 0-17 12-18 13z m-13-54c0 0 0 0 0 0-11 0-17 12-18 13l3 1c0 0 6-6 14-6 5 0 11 1 15 7l3-1c-6-8-10-13-17-14z m31-42c0 0 0 0 0 0-11 0-17 12-18 13l3 1c0 0 6-6 14-6 5 0 11 1 15 7l2-1c-5-8-9-13-16-14z m31-44c0 0 0 0 0 0-11 0-17 12-18 13l3 1c0 0 6-7 14-6 5 0 11 1 15 7l3-2c-6-7-10-13-17-13z m29-45c-11 0-17 12-17 12l2 2c0-1 6-7 15-7 5 0 10 1 14 7l3-1c-5-8-10-13-17-13 0 0 0 0 0 0z m21-47c0 0 0 0 0 0-11 0-17 12-17 13l2 1c0 0 6-6 15-6 5 0 10 1 14 7l3-1c-6-8-10-13-17-14z m20 47c0 0 0 0 0 0-11 0-17 12-17 12l2 2c0-1 6-7 15-7 4 0 10 1 14 7l3-1c-6-8-10-13-17-13z m33 45c0 0 0 0 0 0-11 0-17 12-17 13l2 1c0 0 6-7 15-6 5 0 10 1 14 7l3-2c-6-7-10-13-17-13z m26 42c-1 0-1 0-1 0-11 0-17 12-17 13l2 1c0 0 6-6 15-6 5 0 10 1 14 7l3-1c-5-8-10-13-16-14z m13 57l3 1c0 0 6-6 15-6 4 0 10 1 14 7l3-1c-6-8-10-13-17-14 0 0 0 0 0 0-11 0-17 12-18 13z m-98 37c0 0 17 63-16 82m20-30c0 10 3 18 8 24 4 7 10 12 17 15 8 3 16 5 25 3 8-2 17-6 21-16-8-6-12-10-17-14-4-3-8-6-13-8-5-2-11-4-17-4-7-1-14-1-24 0z m-2-7c-9-2-16-2-22-2-7 0-12 1-18 2-5 2-10 4-15 6-5 2-10 5-19 9 3 9 11 14 19 17 8 2 16 2 24 0 7-2 14-6 19-11 6-5 10-11 12-21z"/>
<glyph unicode="&#87;" d="M203 89l-13-16c-7-9-21-10-30-3l-20 17-37-45c-2-3-6-3-8-1-2 2-3 5-1 8l37 45-21 17c-9 7-10 20-3 29l12 16c8 9 21 11 30 3l50-40c10-8 11-21 4-30z m31 38c-3-4-10-4-15 0l-65 54c-5 3-7 10-4 13 3 4 10 4 15 0l65-53c5-4 7-10 4-14z m43 54l-12-16c-8-9-21-10-30-3l-50 41c-10 7-11 21-4 30l13 15c7 9 21 11 30 3l50-40c9-8 10-21 3-30z m31 38c-3-3-9-3-14 1l-66 53c-5 4-6 10-3 14 3 3 9 3 14-1l66-53c5-4 6-10 3-14z m92 246c-26 0-48-22-48-48 0-13 5-25 13-33l-46-57-21 17c-9 7-22 6-30-3l-12-16c-7-9-6-23 3-30l50-41c9-7 23-5 30 4l13 15c7 9 5 23-4 30l-20 17 45 56c8-5 17-8 27-8 27 0 49 22 49 49 0 26-22 48-49 48z m0-87c-21 0-38 17-38 39 0 21 17 38 38 38 22 0 39-17 39-38 0-22-17-39-39-39z"/>
<glyph unicode="&#88;" d="M361 296c0-1-1-3-2-4-3-4-6-7-10-10-1-1-2-1-3-2-4-2-8-4-13-5 0 0 0-1 0-1 0-4 0-8-1-12 5 0 9 1 14 2 1 1 2 1 3 2 5 2 8 5 12 8 1 1 2 2 2 3 0 7-1 13-2 19z m-14 35c0-2 0-3-1-5-1-5-3-9-5-13-1-1-2-2-3-3-3-3-6-6-10-8 1-5 3-9 4-13 4 1 8 3 11 6 1 1 2 2 3 3 4 3 6 7 8 12 1 1 1 2 2 4-3 6-6 11-9 17z m-11 15c-4 5-9 9-14 13 0-2 1-4 1-6 0-4 0-9-1-14-1-1-1-2-1-3-2-4-4-8-7-12 3-3 6-7 8-10 3 2 6 6 9 10 0 1 1 2 1 3 2 5 3 9 4 14 0 1 0 3 0 5z m-27-24c0-1 0-2-1-3l-1-3c-2-7-7-13-13-17 1 0 1-1 1-1 1-2 2-3 2-4 1-2 1-3 1-4 1-1 1-1 1-2 8 3 14 9 19 16l1 3c0 0 0 0 0 0 0 1 0 2-1 2-2 4-5 8-8 12 0 0-1 1-1 1z m-1 42c-1 2-1 3-2 5-6 3-11 5-18 7 2-1 3-3 3-5 2-4 4-8 4-13 0-1 0-3 0-4 0-4 0-9-2-13 4-2 8-5 11-7 2 3 4 8 5 12 0 1 0 3 0 4 1 5 0 9-1 14z m-27-4c0 1-1 2-1 3-1 5-3 9-6 13-1 1-3 3-4 4-5 1-9 1-14 1-2 0-3 0-5 0 2-1 3-2 5-4 3-3 6-7 8-11 0-1 1-2 1-4 2-4 3-8 3-12 4-1 9-2 13-3 1 4 1 8 0 13z m-33 6c-3 4-6 7-10 10-2 1-4 2-6 3-6-2-12-4-18-6 2-1 4-1 6-2 4-2 8-5 12-8 1-1 2-2 2-3 3-3 5-7 7-11 4 1 9 2 13 2-1 4-2 8-4 12-1 1-2 2-2 3z m-51-2c-5-3-10-7-15-12 3 1 5 1 7 0 5 0 9-1 14-3 1-1 2-1 3-2 4-2 7-5 10-8 3 3 8 5 12 6-2 4-5 7-8 10-1 1-2 1-3 2-4 3-9 5-13 6-2 0-5 1-7 1z m-27-26c-4-5-7-10-10-16 2 1 4 2 6 3 4 1 9 1 14 1 1 0 2 0 4-1 4 0 8-2 11-4 3 4 6 7 10 10-3 3-7 5-11 6-1 1-2 1-4 1-4 2-9 2-14 1-2 0-4 0-6-1z m-17-33c-2-6-3-12-4-19 2 2 3 3 5 4 4 3 8 5 13 7 1 0 2 0 3 0 4 1 9 1 13 1 1 4 3 8 5 12-4 1-8 2-12 2-1 0-3 0-4 0-5-1-9-2-13-4-2-1-4-2-6-3z m-2-56c1 2 2 4 3 5 3 4 6 8 10 10 1 1 2 2 3 2 4 3 8 4 12 5 0 1 0 2 0 3 0 3 0 7 1 10-5 0-9-1-13-2-1 0-2-1-3-1-4-2-8-5-11-9-2-1-3-3-4-4 0-7 1-13 2-19z m15-34c0 2 0 4 1 5 1 5 3 9 6 13 0 1 1 2 2 3 3 4 6 6 9 8-1 5-3 9-4 13-3-1-7-3-10-6-1-1-2-2-3-3-3-3-6-7-8-11-1-2-1-4-2-6 3-5 6-11 9-16z m11-15c5-4 9-8 14-12 0 2 0 3-1 5 0 5 0 9 1 14 1 1 1 2 1 4 2 4 4 7 7 11-3 3-6 7-8 10-3-2-6-6-8-9-1-1-2-3-2-4-2-4-3-9-4-13 0-2 0-4 0-6z m28-17c1-2 1-3 2-5 5-3 11-5 17-7-1 1-2 3-2 4-2 4-4 9-4 14 0 1 0 2 0 3 0 5 1 9 2 13-4 2-8 5-11 8-2-4-4-8-5-13 0-1 0-2 0-3-1-5 0-10 1-14z m27 4c1-1 1-3 1-4 2-4 4-9 6-12 1-2 2-3 3-4 5 0 9-1 14-1 1 0 3 0 5 0-2 1-3 2-4 3-3 3-6 7-8 12 0 1-1 2-1 3-2 4-3 9-3 13-4 1-8 2-13 3 0-4 0-9 0-13z m17-118c1 0 13 0 14 0 0 1 0 48 0 92-2 0-5-1-7-1-3 0-5 1-8 1 1-44 1-91 1-92z m16 112c3-4 7-8 10-10 2-1 3-2 4-2 6 1 12 3 18 5-2 1-3 1-4 2-4 2-8 4-12 8-1 0-1 1-2 2-3 4-5 8-7 12-4-1-9-1-13-2 1-4 2-8 4-12 1-1 2-2 2-3z m48 2c5 3 10 7 15 11-1 0-3 0-4 0-4 0-9 1-14 3-1 1-2 2-3 2-4 3-7 6-10 9-4-2-8-4-12-6 2-4 5-7 9-10 1-1 2-2 3-3 4-2 8-4 12-6 2 0 3 0 4 0z m24 24c1 0 2 0 4 1 3 4 7 10 10 15-1 0-3-1-4-1-4-1-9-2-14-1-1 0-2 0-4 0-4 1-9 2-13 5-2-4-5-7-9-10 4-3 8-5 12-7 1 0 3-1 4-1 5-1 9-2 14-1z m-42 47c-2-2-3-4-5-6 0 0 0-1-1-1 7-7 16-11 26-11l2 0c1 1 1 2 2 2 2 4 4 8 5 12 0 1 0 2 1 2-1 0-2 0-2 0l-3-1c-9-1-17 0-24 5-1-1-1-1-1-2z m-6-42c0 0 2-1 2-1 1 0 2 1 2 1 4 2 8 5 11 8 0 1 1 1 1 1 0 1-1 1-2 1l-3 1c-8 3-15 9-19 17 0-1-1-1-1-1-2-2-4-3-6-4-1 0-1 0-1 0 0 0-1 0-1 0 2-10 8-18 17-23z m-17-6l-2 2c-6 6-8 14-8 22 0 1 0 1 0 2-1 0-1 0-2 0-3 0-5 0-7 0-1 0-2 0-2 0-3-9-1-19 3-27l2-3c0 0 0 0 1 0 0 0 1 0 2 0 4 0 9 0 13 1 0 1 1 1 2 1-1 0-1 1-2 2z m-29 134l2-3c4-4 7-10 8-16 0 0 1 0 1 0 3 0 6 0 9-1 1 0 2 0 2 0 1 7-1 14-5 21l-2 3c0 0-1 1-1 2 0 0-1 0-1 0 0 0-1 0-1 0-5-1-10-1-14-2-1 0-2 0-2-1 1-1 3-2 4-3z m-32-16l3-1c6-3 11-6 15-11 1 0 1 1 2 1 2 2 5 3 7 4 1 0 1 1 1 1 0 0 1 0 1 0-3 6-8 11-14 15l-3 2c-1 0-2 0-3 1-1-1-1-1-2-1-4-3-8-6-11-9-1 0-1-1-2-1 2-1 4-1 6-1z m-19-30l3 0c7 2 13 1 19-2 0 1 0 1 1 1 0 1 0 1 0 1 1 3 3 5 4 8 0 0 1 1 1 1-6 4-13 6-20 6l-3 0c-2 0-3 0-4 0 0-1-1-2-1-2-2-5-4-9-5-13 0-1-1-2-1-3 2 1 4 2 6 3z m20-26c0 1 0 1 0 2-1 2-1 4-1 6 0 1 0 2 0 3 0 0 0 1 0 1-7 1-15 0-22-4l-2-2c-1-1-2-2-3-2 0-1 0-2 0-3 0-4 1-9 2-13 0-1 1-1 1-2 1 1 2 3 3 4l3 2c5 5 12 8 19 8z m10-21c0 1-1 1-1 2-2 2-3 4-5 6 0 1 0 2 0 2-8-3-15-8-19-16l-1-3c-1-1-1-1-1-2 0-1 0-1 1-2 2-4 5-7 8-10 1-1 1-1 2-2 0 2 0 3 1 5l1 3c2 7 7 13 14 17z m18-12c0 0-1 0-1 0 0 0 0 0 0 0-3 1-5 2-7 4-1 0-1 0-2 1-6-7-9-16-9-25l0-3c0-1 0-1 0-1 1-1 1-1 2-1 4-2 8-4 12-5 1-1 2-1 3-1-1 1-1 2-2 3l0 4c-2 8 0 16 4 24z m20 41c1 0 2 0 4 0 1 0 2 0 3 0 2 1 3 1 5 1 1 1 3 1 4 2 3 1 5 2 7 3 4 3 7 6 10 9-1 0-1 0-1 1-1 4-4 8-7 11-2-7-6-13-11-17-2-2-3-3-6-5-1-1-2-1-4-2-1-1-3-1-4-2-1 0-2 0-4-1 1 1 2 2 3 2 1 1 2 2 3 3 1 1 1 2 2 3 1 1 2 3 2 4 1 1 2 3 3 4 1 3 1 5 2 7 1 5 1 9 0 14-4 1-9 3-13 3 3-6 5-13 4-20 0-3 0-5-1-8 0-1-1-3-1-4-1-2-1-3-2-4 0-1-1-3-2-4 0 1 1 3 1 4 0 1 0 2 0 4 0 1-1 2-1 3 0 2 0 3-1 5 0 1-1 3-1 4-1 3-2 5-4 7-2 4-5 7-9 10 0 0 0 0 0 0-5-2-8-5-12-8 7-2 13-6 18-11 2-2 3-3 4-6 1-1 2-2 3-4 0-1 1-3 1-4 1-1 1-2 1-4 0 1-1 2-2 3-1 1-2 2-3 3-1 1-2 1-3 2-1 1-2 2-3 2-2 1-3 2-5 3-2 1-4 1-7 2-4 1-9 1-14 0 0 0 0 0 0 0-1-4-2-9-2-14 6 4 13 6 20 5 2 0 5 0 7-1 2 0 4-1 5-1 1-1 3-1 4-2 1 0 2-1 3-2-1 0-2 1-3 1-1 0-3 0-4 0-1 0-2-1-4-1-1 0-3 0-4-1-2 0-3-1-5-1-2-1-4-2-6-4-4-2-8-5-10-9 2-5 4-8 7-12 2 7 6 13 11 18 2 2 4 3 6 4 2 1 3 2 5 3 1 0 2 1 4 1 1 1 2 1 3 1-1 0-1-1-2-2-1-1-2-2-3-3-1-1-2-2-2-3-1-1-2-2-3-3-1-2-1-3-2-5-1-2-2-4-2-7-1-4-1-9-1-13 5-2 9-3 14-3-3 6-5 13-5 20 0 2 1 5 1 7 1 2 1 4 2 5 0 1 1 3 1 4 1 1 2 2 2 3 0-1 0-2 0-3 0-1 0-3 0-4 0-1 0-2 0-4 1-1 1-3 1-4 1-2 1-3 2-5 1-2 2-4 3-6 3-4 6-7 9-10 5 2 9 4 12 8-7 2-13 5-17 10-2 2-3 4-5 6-1 2-1 3-2 5-1 1-1 2-2 4 0 1 0 2-1 3 1-1 2-1 2-2 1-1 2-2 3-3 1-1 2-2 3-2 1-1 3-2 4-3 1-1 3-1 4-2 3-1 5-2 7-2 5-1 9-1 13-1 0 0 0 0 0 0 2 5 3 9 3 14-6-3-13-5-19-5-3 0-5 1-8 1-1 1-3 1-4 2-2 0-3 1-4 1-1 1-3 2-4 2 1 0 3 0 4 0z m17 40c0-1 1-1 1-1 3-2 5-3 8-5 0-1 0-1 1-1 4 6 7 13 7 21l0 3c0 1 0 1 0 2-1 0-2 1-2 1-4 2-9 4-13 6-1 0-1 0-2 0 0-1 1-2 1-4l1-3c1-7 0-13-2-19z m23-48c0-1 0-2-1-2 9-2 18-1 26 4l3 1c0 1 0 2 0 3 0 4-1 9-1 13-1 1-1 1-1 2 0-1-1-1-2-2l-2-2c-6-5-14-8-21-8 0-1 0-1 0-2 0-2-1-5-1-7z m58-28c2 6 3 12 4 19-1-1-2-2-3-3-3-3-8-5-12-6-2 0-3-1-4-1-5-1-9-1-14 0-1-4-3-8-5-12 4-2 9-3 13-3 2 0 3 0 4 1 5 0 10 1 14 3 1 1 2 2 3 2z m-102-223c-132 0-239 107-239 239 0 132 107 239 239 239 132 0 239-107 239-239 0-132-107-239-239-239z"/>
<glyph unicode="&#89;" d="M183 325c0-28-23-51-51-51-28 0-50 23-50 51 0 28 22 51 50 51 28 0 51-23 51-51z m63-113c0-27-22-49-48-49-27 0-49 22-49 49 0 26 22 48 49 48 26 0 48-22 48-48z m58-104c0-29-23-51-51-51-28 0-51 22-51 51 0 28 23 50 51 50 28 0 51-22 51-50z m58 105c0-27-22-50-50-50-28 0-50 23-50 50 0 28 22 50 50 50 28 0 50-22 50-50z m64 111c0-28-23-51-51-51-29 0-52 23-52 51 0 29 23 52 52 52 28 0 51-23 51-52z m-163 124l0-83c21-5 36-24 36-46 0-27-21-48-47-48-27 0-48 21-48 48 0 24 18 44 41 47l0 82-92 0 0 20 203 0 0-20z"/>
<glyph unicode="&#90;" d="M317 334l27-28 1 1c6 7 10 16 10 26l1 1z m38 4c0 10-4 19-10 26l-1 1-27-28 39 0z m-14 30c-8 7-17 10-26 11l-1 0 0-39 27 28z m-31 11l-1 0c-10-1-19-4-26-11l-1 0 28-28z m-31-15c-6-7-10-16-11-26l0-1 39 0-27 28z m-37-31l24-64 38 0c0 0 0-47 0-53 0-10 2-23-10-32-13-11-27-18-27-33l-13 0c0 15-13 23-27 33-11 9-10 22-10 29 0 8 0 56 0 56l42 0-24 64-23 0 0-124c0 0-2-19 12-30 4-3 10-6 12-8 8-7 14-10 13-25 0-15-7-18-19-23-12-4-14-7-14-13l90 0c0 6-3 9-14 13-12 5-20 8-20 23 0 15 6 18 14 25 2 2 8 5 11 8 14 11 13 30 13 30l0 124z m-14 35c-1 3-4 8-11 9-1 0-3 0-4 0-8-2-26-7-27-7l2-6c0 0 17 5 25 6 2 0 4 0 5 0 3-2 4-5 4-5l11-27 7 0z m86-76l1 0c9 0 18 4 26 11l0 0-27 28z m-58-275c-132 0-239 107-239 239 0 132 107 239 239 239 132 0 239-107 239-239 0-132-107-239-239-239z"/>
<glyph unicode="&#48;" d="M385 351l-1-1c-13-11-28-17-44-18l-2 0 0 66z m24 51l0-1c-1-16-8-32-18-44l-1-1-47 46z m0 7l-66 0 47 47 1-2c10-12 17-27 18-43z m-24 51l-47-46 0 66 2-1c16-1 31-7 44-18z m-53 20l0-66-47 46 1 1c13 11 28 17 44 18z m-5-71l-66 0 0 2c1 16 8 31 19 43l1 2z m-3-383l-151 0c0 9 4 14 24 22 20 7 32 13 33 38 0 24-10 31-23 42-4 3-14 9-20 14-24 18-21 50-21 50l0 210 39 0 41-108-71 0c0 0 0-82 0-95 0-12-2-34 17-49 23-17 46-31 46-55l21 0c0 24 23 37 46 55 20 16 18 37 18 53 0 11 0 91 0 91l-65 0-42 108 115 0 0-210c0 0 3-32-21-50-6-5-15-11-19-14-13-11-23-18-23-42 0-25 13-31 33-38 20-8 23-13 23-22z m-111 383l-12 0-17 47c-1 0-3 5-7 7-3 2-6 2-9 1-14-2-42-10-42-10l-3 10c1 1 31 9 45 11 2 1 5 1 7 0 11-1 16-9 19-15z"/>
<glyph unicode="&#49;" d="M216 180c6-1 10-9 9-19-1-9-7-16-13-15-7 1-11 9-10 18 1 9 7 16 14 16z m-27-15c-6-1-12 6-14 15-1 9 3 17 9 18 6 1 13-5 14-15 2-9-2-17-9-18z m3-19c4-7 3-14-1-17-5-2-11 1-15 8-4 6-3 14 1 16 5 2 11-1 15-7z m-47 47c8 3 18-4 22-16 5-11 2-23-6-26-9-3-19 4-23 16-4 12-1 24 7 26z m10 8c-12 1-20 16-19 33 2 18 13 31 25 30 12-1 21-16 19-33-1-18-12-31-25-30z m45 32c-6-2-13 4-16 13-2 9 1 18 7 19 6 2 13-4 16-13 2-9-1-18-7-19z m30-24c2-12-3-23-12-24-8-2-17 7-19 20-2 12 3 23 12 24 8 1 17-7 19-20z m174 140c-5 6-12 8-19 6 4 5 4 13 0 18-6 7-16 9-23 4-7-6-9-16-3-23 3-4 6-5 1-9l0 0c-7-6-32-23-57-38 2-2 4-4 6-6 2-4 5-7 7-11 30 23 59 44 61 40 6-7 16-8 23-3 8 5 9 15 4 22z m-156-49c-22 3-39 1-60-8 0 0 0 0 0 0l0 0 0 0c61-15 79-111 48-157 39 18 71 47 71 117 32 10-33 96-59 48z m-79-17c-31-5-51-46-43-91 7-46 38-79 70-74 31 5 51 45 43 91-7 45-38 79-70 74z m87-266c-132 0-239 107-239 239 0 132 107 239 239 239 132 0 239-107 239-239 0-132-107-239-239-239z"/>
<glyph unicode="&#50;" d="M267 161c0-63 0-130 0-131-2 0-20 0-22 0 0 1 0 68 0 131 4 0 7 0 11 0 4 0 7 0 11 0z m-32 165c2 0 4 0 6 1 1 0 3 0 5 0 2 0 4 0 6 0 1 0 3 0 4 0-1-1-3-1-5-2-2 0-4-1-5-2-3-1-5-2-7-3-3-2-6-4-8-7-8-7-13-15-16-25-5 5-8 10-11 17 4 5 9 10 15 13 2 2 5 4 9 5 2 1 4 2 7 3z m4-22c1 2 2 4 3 7 1 1 2 3 3 5 1 1 3 2 4 4 1 1 2 3 4 4 1 1 2 2 3 3-1-2-1-3-2-5-1-2-2-4-3-5 0-3-1-5-2-8 0-3-1-6-1-10 0-10 2-20 7-29-7 1-14 2-20 4-1 7-1 14 1 20 0 3 1 7 3 10z m25 6c2-3 4-6 6-9 7-7 15-12 25-15-5-5-11-9-17-11-5 4-10 9-13 14-2 3-4 6-5 9-1 2-2 5-2 7-1 2-1 4-1 6-1 2-1 4-1 5 0 2 0 4 0 6 0 2 0 3 0 5 1-2 1-4 2-5 1-2 1-4 2-6 1-2 2-4 4-6z m4 6c-2 1-3 2-4 3-2 1-3 3-4 4-2 1-3 3-4 4 2-1 4-2 5-3 2-1 4-1 6-2 2-1 4-2 7-2 3-1 7-1 10-2 10 0 20 2 28 7 0-7-1-13-4-20 0 0 0 0 0 0-6-1-13 0-19 1-3 1-6 2-10 3-2 1-4 2-6 3-2 1-4 3-5 4z m-6 12c2 1 4 2 5 3 3 1 5 2 7 3 3 2 6 4 8 6 7 7 13 16 16 25 4-5 7-10 10-16 0-1 0-1 0-1-4-5-8-9-14-13-2-2-6-3-9-4-2-1-4-2-7-3-2 0-4-1-6-1-1 0-3 0-5-1-2 0-4 0-6 0-1 0-3 1-5 1 2 0 4 1 6 1z m6 10c-1-1-3-3-4-4-1-1-2-3-4-4-1-1-2-2-4-3 1 1 2 3 3 5 1 1 2 3 3 5 0 3 1 5 2 7 0 4 1 7 1 11 0 9-2 19-7 28 7 0 14-2 20-4 1-7 1-13-1-19 0-4-1-7-3-10-1-2-2-5-3-7-1-2-2-3-3-5z m-19 6c-2 3-4 6-6 8-7 8-16 13-25 16 4 5 10 8 16 11 0 0 0 0 1 0 5-4 9-9 13-14 2-3 3-6 5-9 1-3 2-5 2-7 1-2 1-4 1-6 1-2 1-4 1-6 0-2 0-4 0-5 0-2 0-4-1-5 0 2 0 3-1 5-1 2-1 4-2 6-1 2-2 4-4 6z m-10-10c-3 1-7 1-10 1-10 1-21-2-30-6 1 6 2 13 5 19 0 0 0 0 0 0 6 1 13 1 20 0 3-1 6-2 10-3 2-1 4-2 6-4 2-1 4-2 5-3 2-1 3-2 4-3 2-2 3-3 4-4 2-2 3-3 3-4-1 1-3 2-4 3-2 0-4 1-6 2-2 1-5 1-7 2z m-46-16c0-1 0-2 0-3-10 0-20-4-28-11l-3-3c-2-2-4-4-5-6 0 1-1 2-1 3-2 6-3 12-3 19 0 1 0 2 0 3 1 1 2 2 4 3l4 3c9 5 20 8 31 7 0-1 0-2 0-3 0-1 0-2 0-3 0-3 0-6 1-9z m-36 34c2 6 4 12 7 18 1 1 1 2 2 3 2 0 3 1 5 1l5 0c10 0 20-3 29-9-1-1-1-1-2-2-2-3-4-7-6-11 0 0 0 0 0-1 0 0-1-1-1-1-8 3-18 4-27 3l-5-1c-2-1-5-2-8-3 0 1 1 2 1 3z m49-65c0 0 1-1 1-2-9-5-17-14-20-25l-2-4c0-2-1-5-1-7-1 1-1 2-2 2-5 5-9 10-12 15-1 1-1 2-2 3 0 1 1 2 1 3l3 5c6 10 15 18 26 22 1-1 1-1 1-2 2-3 4-7 7-10z m21-63c-7 2-12 4-18 7-1 1-2 1-3 2 0 0 0 1 0 2l0 5c0 13 5 25 13 34 1 0 2-1 2-1 3-2 7-4 10-5 0 0 0 0 1 0 0-1 1-1 1-1-6-10-8-22-6-34l1-5c0-2 1-3 2-5-1 1-2 1-3 1z m37 37c0-12 4-23 12-32l3-3c1-1 2-2 3-3-1 0-2 0-3-1-6-1-13-2-19-2-1 0-2 0-3 0 0 0 0 0-1 0l-2 4c-7 12-9 26-5 39 0 0 1 0 2 0 4 0 7 0 11 0 1 0 1 0 2 0 0 0 0-1 0-2z m56-11l4-1c1 0 2-1 3-1-1 0-2-1-2-2-5-4-10-8-16-11 0-1-1-1-2-2-1 1-4 2-4 2-12 7-21 19-24 32 0 0 1 1 2 1 0 0 0 0 0 0 3 1 6 3 9 5 1 0 2 1 3 1 5-11 15-19 27-24z m33 40c-2-6-4-12-7-18-1-1-1-2-2-2l-4-1c-14 0-27 6-36 15 0 1 1 2 1 2 3 3 5 6 6 9 1 1 1 2 2 2 10-6 22-9 34-6l5 1c1 0 2 0 2 1 0-1 0-2-1-3z m4 52c1-6 2-12 2-19 0-1 0-2 0-3l-4-3c-11-6-24-8-37-5 0 1 1 1 1 2 0 4 1 8 1 11 0 1 0 2 0 3 11 0 22 4 31 11l3 3c1 1 2 2 3 3 0-1 0-2 0-3z m-10 29c0 0 0 0 0 0l-3-4c-6-11-15-19-26-23-1 1-1 2-1 3-1 1-1 3-2 5-1 2-2 3-3 5 0 1-1 2-1 3 8 5 15 14 18 23l2 5c0 1 1 3 1 5 1-1 1-2 2-3 4-5 8-10 11-16 1-1 1-2 2-3z m-58 40l-1 4c-1 2-1 5-2 7 1-1 2-1 3-1 6-3 12-5 18-9 1 0 2-1 3-1 0-1 0-2 0-2l0-5c0-11-3-22-10-31 0 1-1 1-2 2-3 3-6 5-10 7-1 1-1 1-2 1 4 9 5 18 3 28z m-55 13c7 1 13 2 20 2 1 0 1 0 2 0 0 0 1 0 1 0 1-1 2-2 3-3l2-4c5-9 8-19 7-30-1 1-2 1-2 1-5 1-9 1-13 1-1 0-2 0-3 0-1 8-5 16-11 23l-3 4c-2 2-4 3-6 5 1 0 2 0 3 1z m-1-37c0-1-1-1-2-1 0 0 0 0 0 0-4-2-8-4-11-6-1-1-2-1-2-2-6 7-13 12-22 15l-4 1c-3 1-6 2-9 2 1 1 2 1 3 2 4 5 10 9 15 12 1 1 2 2 3 2 2 0 3-1 5-2l4-2c9-5 16-12 20-21z m-50 19c-5-5-10-9-14-15-5 3-10 5-17 6-1 1-3 1-5 1-7 0-14 0-20-2-3-1-6-2-9-3 4 8 9 15 14 23 4 0 7 1 10 1 6 1 13 1 20-1 2-1 3-1 5-2 6-2 11-5 16-8z m-24-31c-4-5-6-11-8-18-6 1-12 1-18 0-2 0-3-1-5-1-7-2-13-5-18-9-3-2-5-4-7-6 1 9 3 18 5 26 3 2 5 4 8 5 6 3 13 5 20 6 1 0 3 0 5 0 6 0 12-1 18-3z m-13-37c0-5-1-10-1-15 0-1 0-3 0-4-5-1-11-3-16-6-2-1-3-2-5-3-5-4-10-9-14-15-1-2-3-5-4-7-2 8-3 17-4 26 2 3 4 5 6 7 4 5 10 9 16 12 2 1 3 1 5 2 6 2 12 3 17 3z m2-38c1-7 3-13 6-19-5-3-10-7-14-12-1-1-2-2-3-4-4-6-7-12-9-18 0-3-1-5-1-8-5 7-9 15-13 23 1 3 2 6 3 8 3 6 7 12 11 17 2 1 3 2 4 4 5 4 10 7 16 9z m14-36c4-5 8-11 12-15-4-5-7-10-9-16-1-2-1-4-2-6-1-6-2-13-1-20 0-2 1-4 1-7-7 6-14 12-20 18 0 3 0 5 0 8 1 6 2 13 5 19 1 2 2 3 3 5 3 5 7 10 11 14z m45-82c1-2 2-4 3-6-8 3-17 6-24 10-1 2-2 4-3 7-2 6-2 13-2 20 0 1 1 3 1 5 1 6 3 12 6 18 5-4 11-8 16-11-2-6-3-12-3-18 0-2 0-4 0-6 1-7 3-13 6-19z m56-13c-3 0-5 0-7 0-7 0-13 1-20 2-1 1-3 3-4 4-4 6-7 12-9 18 0 2 0 4-1 6-1 6-1 13 0 19 6-2 12-4 19-5 0-6 1-12 3-18 1-2 2-4 2-5 3-7 7-12 12-17 1-1 3-2 5-4z m46 14c2-1 3-2 5-2-8-4-16-6-25-8-2 1-3 2-5 3-6 3-10 8-15 14-1 1-1 3-2 4-4 6-6 12-7 18 6 1 13 1 19 3 2-6 5-12 10-17 1-1 2-3 3-4 5-5 11-9 17-11z m45 26c1 0 3 0 5 0-7-6-14-11-21-16-2 0-4 0-6 1-6 1-12 4-18 8-1 1-3 2-4 3-5 5-10 10-13 15 6 3 12 6 17 9 4-5 9-9 15-13 2-1 3-1 5-2 6-3 13-5 20-5z m33 40c1 0 3 1 5 2-4-8-9-16-15-23-2 0-3 0-5-1-7 0-14 0-20 2-2 0-4 1-5 2-7 2-12 5-17 10 4 4 9 8 13 13 5-3 11-5 18-6 2-1 4-1 6-1 6-1 13 0 20 2z m17 49c1 1 3 2 4 3-1-9-3-17-6-26-1-1-3-2-5-2-6-3-12-5-19-6-2 0-4 0-5 0-7 0-14 1-20 3 3 6 6 12 8 18 6-1 13-1 20 0 1 0 3 1 5 1 6 2 13 5 18 9z m6 30c-1-1-3-3-4-4-5-5-10-9-16-12-2-1-4-2-5-2-7-3-13-4-20-4 1 6 1 11 1 17 0 1 0 2 0 2 7 2 13 4 19 7 1 1 3 2 4 3 6 4 11 9 15 14 1 2 2 4 3 6 2-9 3-18 3-27z m-29 26c-5-4-11-7-17-9-1 6-3 12-5 18 5 3 11 7 15 12 1 2 2 3 3 5 4 5 7 12 8 18 1 2 1 5 2 7 4-8 8-16 12-24-1-2-2-4-2-6-3-7-7-12-12-17-1-1-2-3-4-4z m-11 73c0-3 0-5 0-8 0-6-2-13-5-19 0-2-1-4-2-5-3-6-8-11-12-15-4 6-8 11-12 16 4 4 7 10 10 16 0 2 1 4 1 5 2 7 2 14 2 20 0 3-1 5-2 8 8-6 14-12 20-18z m-40 25c2-6 3-13 2-20 0-2 0-3 0-5-1-7-4-13-7-18-5 4-10 8-16 11 2 5 3 12 3 18 0 2 0 4 0 6 0 6-2 13-5 19-2 2-3 5-5 7 9-3 18-6 26-10 1-3 2-5 2-8z m-39-6c2-6 2-12 1-18-6 2-13 3-19 4 0 6-1 12-4 18 0 2-1 4-2 5-3 6-7 12-11 17-3 2-5 4-7 5 2 0 4 0 7 0 7 0 13 0 20-1 2-2 4-4 6-7 3-5 6-11 8-18 1-1 1-3 1-5z m-38-13c-6 0-13 0-19-2-2 6-5 11-9 16-1 1-2 3-4 4-5 5-10 8-16 11-3 1-6 2-9 3 8 4 17 7 26 9 3-2 5-3 8-5 5-4 10-8 14-14 1-1 2-3 3-5 3-5 5-11 6-17z m-49 6c5-4 8-8 12-13-7-3-12-5-18-9-4 5-8 8-14 11-1 1-3 2-4 3-7 3-13 4-20 5-3 0-6 0-9 0 6 6 13 11 21 16 3 0 6 0 9-1 7-2 13-4 19-8 1-1 2-2 4-4z"/>
<glyph unicode="&#51;" d="M256 245c-17 0-30 14-30 30 0 17 13 30 30 30 16 0 30-13 30-30 0-16-14-30-30-30z m43 124l-7 11c-28-17-38-45-41-59l-90 0 86-126 0-50-58-20 134 0-58 20 0 50 86 126-87 0c4 13 13 35 35 48z m-43-352c-132 0-239 107-239 239 0 132 107 239 239 239 132 0 239-107 239-239 0-132-107-239-239-239z"/>
<glyph unicode="&#52;" d="M218 192c-11 72-60 123-109 116-49-7-80-71-68-142 11-71 60-123 109-116 49 8 80 72 68 142z m-76 89c10 3 21-7 25-21 4-14 0-27-10-30-10-3-21 7-25 21-4 14 1 27 10 30z m-47-179c-12-5-28 7-35 25-7 19-2 37 11 41 12 5 28-7 35-25 7-18 2-37-11-41z m-8 78c-19 1-32 25-30 52 3 28 20 49 39 47 19-1 32-25 30-53-2-27-20-48-39-46z m56-112c-7-4-18 1-24 12-6 10-5 21 2 25 7 4 18-1 24-11 5-11 5-22-2-26z m-3 56c-10-2-20 9-22 23-2 15 4 28 14 29 10 2 20-9 22-23 3-15-4-28-14-29z m56-6c-1-14-11-25-21-24-10 1-17 14-15 29 2 14 11 25 21 24 10-1 17-14 15-29z m-11 37c-13-2-27 12-30 31-3 19 6 36 19 38 13 2 26-12 30-31 3-19-6-36-19-38z m138 106c1-110-49-155-109-185 47 73 20 223-76 246 33 14 60 18 94 13 40 75 141-60 91-74z m147 116c-11-8-28-6-36 5-4 6-49-27-96-62-3 5-7 11-11 16-3 3-6 6-9 9 39 24 77 51 88 60l0 0c8 7 4 8-1 15-9 11-7 26 5 35 11 8 27 5 36-5 7-9 6-21 0-29 10 3 22 0 29-9 9-11 6-27-5-35z"/>
<glyph unicode="&#53;" d="M237 292c-1 2-6 1-9 0-7-5-28-20-22-46 1-1 1-1 1-1 1-2 3-2 5-1 0 0 0 0 1 0 2 1 3 4 3 6-4 22 20 36 20 37 3 1 2 3 1 5z m31-85c-2-1-4-2-6-3-29-11-61 0-75 27-7 15-9 31-3 46 5 15 16 27 30 35 2 1 4 2 6 2 29 12 61 0 75-27 8-14 9-30 3-46-5-15-16-27-30-34z m115 46c-4 26-21 47-50 63l-1 0c-20 8-26 18-32 28-4 9-9 17-20 23-18 7-45 6-72-5-30-12-51-32-57-54 0-1-8-34-12-62-4-26 0-62 24-83 14-13 41-25 89-12 32 9 48 7 60 5 8 0 14-1 22 2 7 2 13 7 21 15 13 13 33 46 28 80z m-127-236c-132 0-239 107-239 239 0 132 107 239 239 239 132 0 239-107 239-239 0-132-107-239-239-239z"/>
<glyph unicode="&#54;" d="M475 249c9-59-26-118-49-141-14-13-25-21-36-26-14-5-26-4-40-2-21 2-49 5-105-10-83-23-130-2-155 20-43 38-50 100-43 146 7 49 22 109 22 109 10 39 47 74 100 95 46 19 94 22 125 8 21-9 29-24 37-39 9-18 19-36 56-49l1-1c51-27 81-64 87-110z m-148-20c9 26 7 55-5 80-25 47-82 68-133 48-3-2-7-3-10-5-25-13-44-34-53-61-9-27-8-55 5-80 25-47 82-68 133-48 3 2 6 3 10 5 25 13 44 34 53 61z m-123 88c4 3 13 3 15 0 2-3 3-7-1-9 0 0-43-25-36-64 1-4-1-9-6-11 0 0 0 0 0 0-4-1-8-1-9 2-1 0-1 1-1 1-12 47 25 73 38 81z"/>
<glyph unicode="&#55;" d="M297 340c-19 23-56 23-75 0-28 33-86 15-86-29 0-45 58-63 86-30 19-23 56-23 75 0 28-33 87-15 87 30 0 44-59 62-87 29z m-105-211l135 0 0 118c-11 2-21 6-30 12l1 0-1 0c-3-2-6-4-9-6l0 0c-21-10-47-8-66 6-9-6-19-10-30-12z m64-112c-132 0-239 107-239 239 0 132 107 239 239 239 132 0 239-107 239-239 0-132-107-239-239-239z"/>
<glyph unicode="&#56;" d="M319 378l-7 2-2-7-21-61-113 0 78-91 0-85c-25-1-46-5-53-12l117 0c-8 7-29 11-54 12l0 85 79 91-46 0 20 59 32-11 2 7z m-63-361c-132 0-239 107-239 239 0 132 107 239 239 239 132 0 239-107 239-239 0-132-107-239-239-239z"/>
<glyph unicode="&#57;" d="M356 459l-34-101 78 0-135-158 0-146c43-1 79-9 92-20l-202 0c14 11 49 19 92 20l0 146-135 158 196 0 35 105 4 12 13-4 55-18-4-13z"/>
<glyph unicode="&#33;" d="M377 251l0-208-235 0 0 208c19 2 37 9 52 19 33-23 78-26 115-9l0 0c6 2 11 6 17 9 15-10 33-17 51-19z m99 110c0-79-102-109-150-51-34-41-98-41-132 0-49-58-151-28-151 51 0 78 102 109 151 51 34 41 98 41 132 0 48 58 150 27 150-51z"/>
<glyph unicode="&#34;" d="M321 205c0 4 0 11 0 15l0 108c0 4 0 11 0 15l0 19c0 4-3 6-7 6l-6-1c-4-1-8-5-8-9l-14-127c0-4 2-8 6-9l5-2c4-1 7-5 7-9l0-88c0-4 3-7 7-7l3 0c4 0 7 3 7 7z m-78 161l-9 0 0-51 0 1c0 0 1-13-9-13 0 0-10-2-10 11l0 52-11 0 0-50 0 0c1-15-10-13-10-13-8 0-9 7-9 11l0 52-9 0 0-61c0-15 15-27 33-27 19 0 34 12 34 27l0 61z m-42-243c0-4 4-7 8-7l2 0c4 0 7 3 7 7l0 131c0 4-3 8-7 8l-2 0c-4 0-8-4-8-8z m55-106c-132 0-239 107-239 239 0 132 107 239 239 239 132 0 239-107 239-239 0-132-107-239-239-239z"/>
<glyph unicode="&#35;" d="M379 145l-97 97 0 0-69 68c0 0-62 61-62 61-6 7-8-10-3-16l11-17 11 7-7-15 6-8 8 5-5-10 7-11 5 3-3-6 7-12 4 3-2-5 39-61 31 0 101-101c4-4 11-3 16 2 5 5 6 12 2 16z m-10 164l-56-56c-2-2-7-2-9 0l-30 31c-3 2-3 6 0 9l55 56-8 7-55-55c-7-7-7-18 0-25l30-30c7-7 18-7 25 0l56 55z m-19 21c-2 2-6 1-8-1l-51-50c-2-3-3-7-1-9 2-2 6-2 9 1l50 50c3 3 3 7 1 9z m-200-201c5-5 12-6 16-2l93 93-2 3-31 0-78-78c-4-4-3-11 2-16z m106-112c-132 0-239 107-239 239 0 132 107 239 239 239 132 0 239-107 239-239 0-132-107-239-239-239z"/>
<glyph unicode="&#36;" d="M311 285c-8 2-31 2-93 13-61 11-30-37-30-37l137-2c19 16-6 24-14 26z m-1 35c-11 0-30 0-68 17-37 16-35-15-35-15l-1-6c7-4 107-18 107-18 0 0 2 1 7 7 6 6 1 15-10 15z m-79 38c24-14 72-22 72-22-67 57 0 45 0 45-43 44-72-23-72-23z m-7-237c2-6 9-12 16-12l35 0c7 0 15 6 17 12l30 121-128 0z m32-104c-132 0-239 107-239 239 0 132 107 239 239 239 132 0 239-107 239-239 0-132-107-239-239-239z"/>
<glyph unicode="&#37;" d="M407 361l-136-200 0-80 92-32-214 0 92 32 0 80-136 200 143 0c5 24 21 68 66 94l10-17c-35-21-49-56-55-77z m-104-72c0 26-21 47-47 47-27 0-48-21-48-47 0-27 21-48 48-48 26 0 47 21 47 48z"/>
<glyph unicode="&#38;" d="M256 495c-132 0-239-107-239-239 0-132 107-239 239-239 132 0 239 107 239 239 0 132-107 239-239 239z m160-371c-123 48-295 41-326 122l0 56c61-74 186-97 326-120z m-14 69c-35 2-396 69-283 167 155 108 369-158 283-167z m-203 176c-18 0-33-12-33-27 0-14 15-26 33-26 18 0 33 12 33 26 0 15-15 27-33 27z m0-42c-11 0-19 7-19 15 0 9 8 16 19 16 11 0 20-7 20-16 0-8-9-15-20-15z"/>
<glyph unicode="&#39;" d="M252 371c0 0-9-1-9-10 0-2-2-4-4-4l0 0c-2 0-4 2-4 3 0 1 0 1 0 1 0 13 11 17 17 17l0 0c2 0 4-1 4-3 0-1 0-2-1-3-1-1-2-1-3-1z m-42-50c0 0-10-3-9-14 0-2-2-4-4-5 0 0 0 0-1 0-1 0-3 1-4 3 0 0 0 1 0 1-1 15 10 21 16 23 2 1 5-1 5-3 1-2 0-4-3-5z m74 2c0 0-10-3-9-14 0-2-2-4-4-4 0 0 0 0 0 0-2 0-4 1-4 2-1 1-1 1-1 1-1 15 10 22 16 23 2 1 5 0 5-3 1-2 0-4-3-5z m8 21c-11 0-21-5-28-12-2-2-14-17-10-36-3-7-7-4-8-2-3 14 1 26 5 34-7 10-18 15-31 15-22 0-41-18-41-40 0-16 9-29 21-36l0 0c1 0 1 0 2 0 1-1 3-2 5-3 2-1 5-1 7-2 5 0 21 0 26 10 1 1 3 2 5 1 2-1 3-3 2-5-3-5-8-9-13-11 41-6 74 9 74 9l0 0c14 7 25 21 25 37 0 23-18 41-41 41z m-35 41c-19 0-34-14-36-32 0 0 0 0 0 0 15 0 28-7 36-18 8 11 21 18 35 18 1 0 1 0 2 0-3 18-18 32-37 32z m-54-163c25-18 53-34 86-44l8 22c-36 6-70 19-100 35z m19-37l0 0c17-13 36-23 57-32l5 13c-24 7-47 18-68 30z m15-26c10-11 21-20 34-29l4 10c-14 6-26 12-38 19z m24-55l0 0 0 0 0 0 4 12c-5 4-10 7-15 11z m52 140c-34-5-69-4-104 0 28-15 59-26 92-32z m-57-227c-132 0-239 107-239 239 0 132 107 239 239 239 132 0 239-107 239-239 0-132-107-239-239-239z"/>
<glyph unicode="&#40;" d="M410 385l-86-86c-4-5-11-5-15-2-3 4-2 10 2 15l86 86c5 4 11 5 15 1 3-3 3-10-2-14z m47-34l-95-95c-12-12-31-12-43 0l-51 51c-12 12-12 31 0 43l95 95 13-13-95-95c-5-5-5-12 0-17l51-51c5-5 12-5 17 0l95 95z m-200-139l-160-160c-7-7-19-5-28 3-8 9-10 21-3 27l134 134 52 0z m201-157c-8-8-20-10-27-3l-173 173-54 0-66 104 4 9-7-4-13 19 6 11-9-5-12 18 9 17-15-8-9 14 12 25-20-12-18 30c-8 9-6 39 5 28 0-1 107-106 107-106l117-116 0 0 167-167c6-6 5-18-4-27z"/>
<glyph unicode="&#41;" d="M372 456l0-407c0-7-5-13-12-13l-4 0c-7 0-13 6-13 13l0 150c0 6-5 14-12 15l-8 3c-6 2-11 9-10 16l23 217c1 7 7 13 14 15l10 1c7 2 12-3 12-10z m-175-183l0-224c0-7-6-13-12-13l-5 0c-7 0-12 6-12 13l0 224c0 6 5 12 12 12l5 0c6 0 12-6 12-12z m42 191l0-104c0-26-26-47-57-47-32 0-57 21-57 47l0 104 14 0 0-90c1-6 3-19 16-19 0 0 18-3 18 23l0 0 0 85 17 0 0-88c1-23 18-20 18-20 17 0 16 23 16 23l0-1 0 87z"/>
<glyph unicode="&#42;" d="M271 54l-7-18-18 35c8-6 16-12 25-17z m14 38l-6-17c-20 14-38 29-53 45l0 0c18-10 38-20 59-28z m14 39l-7-20c-33 14-63 31-89 50l0 0-9 18c32-20 68-36 105-48z m20 53l-12-33c-50 16-95 39-133 68l-10 20c47-26 99-44 155-55z m26 69l-19-50c-51 10-100 27-143 50 54-7 108-7 162 0z m30 93c0-26-16-48-38-58l0 0c0 0-52-24-115-14 8 3 15 8 20 17 1 3 0 6-3 8-3 1-6 0-8-3-7-15-32-16-40-15-4 1-8 2-11 4-3 1-6 2-9 3-1 1-1 1-2 1l0 0c-19 11-32 32-32 55 0 35 28 63 63 63 20 0 37-8 49-24-7-11-13-30-9-51 3-4 9-9 13 2-6 30 13 52 15 56 12 11 27 18 45 18 34 0 62-28 62-62z m-75 30c4 1 6 5 5 8-1 4-5 6-8 5-10-2-28-13-25-36 0 0 0-1 0-1 1-3 4-5 7-5 0 0 0 1 1 1 3 0 6 3 5 7-2 17 15 21 15 21z m-115-3c3 1 6 4 5 8-1 3-5 5-9 5-9-3-27-14-24-36 0-1 0-1 0-2 1-2 4-4 6-4 1 0 1 0 1 0 4 0 7 4 6 7-2 17 14 22 15 22z m65 89l-1 0c-9-1-25-7-26-26 0-1 0-1 0-2 1-3 3-4 6-5l1 0c3 0 5 3 6 6 0 14 14 15 14 15 2 0 3 1 4 2 1 2 2 3 2 5-1 3-3 5-6 5z m-49-39c4 28 28 50 57 50 29 0 53-22 57-50-1 0-2 0-2 0-23 0-44-11-56-29-12 18-33 29-55 29-1 0-1 0-1 0z"/>
<glyph unicode="&#43;" d="M416 124c-123 48-295 41-326 122l0 56c61-74 186-97 326-120z m-297 236c-113-98 248-165 283-167 86 9-128 275-283 167z m80 9c18 0 33-12 33-27 0-14-15-26-33-26-18 0-33 12-33 26 0 15 15 27 33 27z m20-27c0 9-9 16-20 16-11 0-19-7-19-16 0-8 8-15 19-15 11 0 20 7 20 15z"/>
<glyph unicode="&#44;" d="M256 495c-132 0-239-107-239-239 0-132 107-239 239-239 132 0 239 107 239 239 0 132-107 239-239 239z m91-413l-185 0 0 320 143 39 0-43 42 0z m-48 304l-125 0 0-292 161 0 0 292z m12-131l-119 0c-3 0-6 2-6 6 0 3 3 6 6 6l119 0c4 0 6-3 6-6 0-4-2-6-6-6z m0 31l-119 0c-3 0-6 3-6 6 0 4 3 6 6 6l119 0c4 0 6-2 6-6 0-3-2-6-6-6z m6 42c0-3-2-6-6-6l-119 0c-3 0-6 3-6 6 0 3 3 6 6 6l119 0c4 0 6-3 6-6z"/>
<glyph unicode="&#45;" d="M253 320c-23 5-37 12-37 12-20-3-26-28-3-39 13-6 40-8 63-11 29-4 36-15 36-15 17 33-36 49-59 53z m27 31c-34 17-20 39-20 39 0 0-45-14-44-39 1-10 8-18 34-23 13-3 24-6 32-8 13-5 19-10 19-10 14 15-4 33-21 41z m-73-103l102 0c6 23-24 27-62 31-33 3-42 11-42 11-20-20 2-42 2-42z m-2-22l5-4 2 1 17 11-13 8-2 1-16 0z m11-29l4 3 9 6-14 9-5 3-2-2z m3-8l8-5 6-4 19 12-19 12-11-7-5-3z m5-14l5 3 0 0 0 0-8 5z m9-23l5 3 14 9-19 11-3-1-4-3z m9-23l5 3 5 4-9 5-7 5z m11-28c0 0 1-1 2-1 2 0 3 1 3 1l9 25-4 3-8 4-7-4-5-3z m22 45l-8-5-8-5 5-4 5-3z m10 25l-5 3-2 1-19-11 14-9 5-3z m5 12l-8-5-1 0 1-1 4-2z m4 11l-5 3-11 7-19-12 19-12 6 4 8 5z m8 22l-2 2-4-3-15-9 9-6 5-3z m2 4l0 0 0 0z m-36 22l10-6 10 6 2 1-24 0z m-32-8l19-12 19 12-15 9-8 0z m7 8l2 1-24 0 2-1 10-6z m9-22l-19 12-19-12 19-12z m26-12l19 12-19 12-19-12z m-4-2l-19 12-19-12 19-12z m-35-55l-3-1 5-3 14-9 15 9 4 3-3 1-16 10z m35 27l-19 12-19-12 19-12z m39 65l-16 0-2-1-14-8 18-11 1-1 6 4z m-57-226c-132 0-239 107-239 239 0 132 107 239 239 239 132 0 239-107 239-239 0-132-107-239-239-239z"/>
<glyph unicode="&#46;" d="M347 354l-16-43-3-11 3-10 1 0c5 2 10 3 14 5l19 52z m-34 17l-2-21 14-41 2 9 5 51z m-17-42l13-44c7 1 11 2 17 3l-24 68z m-17 41l-15-61-6-29c1 0 2 0 2 0 6 0 12 0 18 0l20 85z m-31-4l-2-33 6-53 14 69 1 16z m-34 8l13-92c6-1 12-1 19-2l-12 97z m-18-34l-11-49c6-1 12-3 18-5l10 50z m-23 20l-19-5 16-59c2 0 9-3 9-3l5 26z m48-77l-5 37-7-35c4-1 8-1 12-2z m83 1l-11 34-8-37c6 1 13 2 19 3z m-125-153l158 0 27 166c-4-2-46-22-104-22-58 0-104 21-108 23z m77-114c-132 0-239 107-239 239 0 132 107 239 239 239 132 0 239-107 239-239 0-132-107-239-239-239z"/>
<glyph unicode="&#1092;" d="M438 327l-46-282-269 0-46 284c7-3 86-39 185-39 99 0 169 34 176 37z m-252 39l8-63c-7 2-13 3-20 4z m132-2l18-59c-10-2-21-4-33-5z m122 49l-32-90c-7-2-15-5-25-8l0 0-6 17 5 19 27 73z m-56 37l-8-86-5-16-24 70 4 35z m-51-22l40-115c-10-3-16-4-28-7l-22 76z m-8 16l-34-145c-9 0-19-1-29-1-2 0-3 0-5 0l11 50 25 104z m-52-1l-1-28-25-116-10 90 3 56z m-57 20l21-164c-11 1-22 2-32 3l-22 157z m-35-69l-17-85c-11 3-21 6-30 8l18 84z m-69 41l20-70-10-44c0 0-11 4-14 5l-28 100z"/>
<glyph unicode="&#58;" d="M274 77l-15-37c0-1-2-2-4-2-2 0-4 1-4 2l-15 37 8 5 11 7 11-8z m-24 15l-8-5-8-5-9 25 12-7z m35 16l-9-26-8 5-8 5 14 8z m22 56l-5-12-7 4 0 0 0 1z m-92-8l0 0-7-4-5 12 12-7z m35-21l-22-13-7-5-11 29 7 5 3 2z m34-22l-7-4-22-14-22 14-7 4 4 3 25 15 25-15z m16 33l-11-29-7 4-22 14 29 18 4-2z m-16 10l-29-18-29 18 29 18z m30 25l-3-8-12-7-10-6-29 18 29 18 17-11z m-64-3l-30-18-9 5-12 8-3 8 8 4 16 11z m34 21l-29-18-29 18 29 18z m-69 0l-14-8-7-5-11 29 3 2 7-4z m35 22l-30-18-28 18 28 18z m68 0l-29-18-29 18 29 18z m9-6l-11-29-8 5-13 8 22 14 7 4z m16 42l-11-27-8-6-2 1-27 17 20 13 3 2z m-36 0l-2-2-16-9-15 9-3 2z m-23-15l-29-18-29 18 23 15 12 0z m-45 15l-3-2-16-9-15 9-3 2z m-24-15l-27-17-2-1-9 6-10 27 25 0 2-2z m122 22l-156 0c0 0-33 33-3 64 0 0 14-12 64-17 58-6 105-11 95-47z m5 29c0 0-12 16-56 23-34 4-75 7-96 17-35 16-25 55 5 59 0 0 21-11 57-17 35-7 116-31 90-82z m-17 66c0 0-10 8-30 14-12 5-28 8-49 13-38 8-50 20-51 35-2 38 65 59 67 59 0 0-20-33 30-59 26-12 54-40 33-62z"/>
<glyph unicode="&#59;" d="M347 398l-42 0 0 43-143-39 0-320 185 0z m-12-304l-161 0 0 292 161 0 0-292z m-24 173l-119 0c-3 0-6-3-6-6 0-4 3-6 6-6l119 0c4 0 6 2 6 6 0 3-2 6-6 6z m0 67l-119 0c-3 0-6-3-6-6 0-3 3-6 6-6l119 0c4 0 6 3 6 6 0 3-2 6-6 6z m0-36l-119 0c-3 0-6-2-6-6 0-3 3-6 6-6l119 0c4 0 6 3 6 6 0 4-2 6-6 6z"/>
<glyph unicode="&#60;" d="M342 357c-4-3-11-2-12-2l-10 2-9 2c-3 0-7 0-8-1 0-1 1-5 3-7l6-7 6-8c1-1 7-8 4-15-4-6-14-4-15-4l-9 2-10 2c-3 0-6 0-7-1-1-1 1-4 3-7l12-15c0-1 7-8 3-14-3-7-13-5-14-4l-19 3c-3 0-7 0-8-1 0-1 2-4 3-7l12-15c1 0 8-8 4-14-4-7-14-5-15-4l-19 3c-3 0-6 0-7-1-1-1 1-4 3-7l6-7 6-7c1-1 7-9 3-15-3-6-13-4-14-4l-19 3c-3 1-7 0-7-1-1-1 1-4 2-6l12-15c1-1 8-9 4-15-4-6-14-4-15-4l-19 3c-2 1-6 0-7-1 0 0 0 0 0 0 2-4 6-7 10-9 16-10 37-5 46 11l93 157c6 10 6 21 2 30z m-4 8c-2 3-6 6-9 8-17 10-37 5-47-11l-93-157c-5-10-6-21-2-31 5 3 12 2 13 2l9-2 10-1c2-1 6-1 7 0 1 1-1 5-3 7l-6 8-6 7c-1 1-7 9-4 15 4 6 14 4 15 4l19-3c3-1 7-1 7 0 1 1-1 5-3 7l-11 15c-1 1-8 9-4 15 4 6 14 4 15 4l9-2 10-1c2-1 6-1 7 0 0 1-1 5-3 7l-6 7-6 8c-1 1-7 9-4 15 4 6 14 4 15 4l9-2 10-2c3 0 7 0 7 1 1 1-1 5-3 7l-6 7-5 8c-1 1-8 8-4 15 4 6 14 4 15 4l19-4c2 0 6 0 7 1 0 1-1 5-3 7l-12 15c-1 1-7 8-4 15 4 6 14 4 15 4l19-4c3 0 7 0 7 1 0 0 0 1 0 2z m-159-259l29 47c-2 0-6 2-7 3-1 1-2 2-3 2l-29-46z m77-89c-132 0-239 107-239 239 0 132 107 239 239 239 132 0 239-107 239-239 0-132-107-239-239-239z"/>
<glyph unicode="&#61;" d="M391 344c8 25-6 52-26 68-11 8-22-10-11-18 11-9 20-25 18-39 7-3 13-6 19-11z m-4-9c-6 4-12 8-18 10-7 3-13 4-20 4-17 0-35-10-46-37-31-77-114-138-132-151-14-11-88-43-31-43 15 0 39 2 75 8 175 26 192 155 192 155 7 19-4 40-20 54z m-18-102c-6-12-24-1-18 10 10 17 37 48 12 62-12 7-1 25 11 18 39-22 12-62-5-90z"/>
<glyph unicode="&#62;" d="M203 226c3 3 8 5 14 3l0 0c1 0 3 0 4 0 11-3 18-13 15-23-2-9-13-14-24-11-11 3-18 13-15 22 1 4 3 7 6 9z m65 64c-10 0-18 5-18 11 0 5 8 10 18 10 10 0 19-5 19-10 0-6-9-11-19-11z m97 55c-4-66-40-100-53-109l10-105c83 87 58 179 43 214z m-15 14l-44-9 0-1c1-6-5-12-15-14-9-2-18 1-19 7l0 1-53-10 1-1c1-7-6-13-15-15-10-2-18 1-20 7l0 2-43-9c36-15 155-66 161-69 11 9 47 42 47 109l0 2z m-182-169l139-63-10 107-22 10c-2-8-11-13-21-11-9 2-16 10-14 18 0 3 1 5 3 6l-39 17c-3-7-11-11-20-9-9 2-16 10-14 18 0 2 1 3 2 5l-40 17z m88-173c-132 0-239 107-239 239 0 132 107 239 239 239 132 0 239-107 239-239 0-132-107-239-239-239z"/>
<glyph unicode="&#273;" d="M73 69l369 0c0-9-37-23-93-27l-182 0c-56 4-94 18-94 27z m340 32l0 0-311 0 11 54c10 0 21 4 31 15 12-5 26-4 37 3 13-11 32-12 48-3 12-6 27-7 39-1 18-12 40-10 56 4 13-10 34-12 46-1 9-9 19-17 33-18 0 0 10-49 10-53z m0 102c-2-34-16-15-30 0-9 10-19 10-29 0-5-14-10-8-16 0-10 43-19 34-27 0-11-16-23-16-35 0-6 11-10 11-14 0-10-14-19-8-28 0-5 36-9 60-14 0-9-12-17-12-26 0-9 14-18 24-27 0-5-8-11-8-16 0-5 40-12 40-21 0-16-27-24-21-28 0 11 25 10 52 33 76 14 15 234 16 246 0 18-25 22-51 32-76z m-222 173l0-58c-6-1-13-1-19-2l0 60z m76 0l0-55c-2 0-5 0-7 0-4 0-8 0-12 0l0 55z m76 0l0-60c-6 1-12 1-19 2l0 58z m-9 94c-2-13 41-54 0-66-25 19-23 58 0 66z m-76 0c-2-13 41-54 0-66-25 19-23 58 0 66z m-76 0c-2-13 41-54 0-66-25 19-23 58 0 66z"/>
<glyph unicode="&#546;" d="M320 439c13 1 78 9 78 9l-4 21-80-10-8-1-63-138-89 0-10 0 0-3 18-279 159 1 26 281-78 0c9 19 45 107 51 119z m16-129c0-3-2-22-4-49-18 14-49-12-49-12-2-36-26-26-26-26-32 17-46-14-46-14-23-28-45-18-49-15-4 58-8 112-8 116 6 0 66 0 115 0 34 0 63 0 67 0z"/>
<glyph unicode="&#2200;" d="M111 272c0-7 0-6 1-6 2 1 96-5 131-8 7 0 10-6 7-12-14-24-47-81-62-104-4-6-3-13 3-16 20-10 43-16 67-16 82 0 148 66 148 147 0 82-66 148-148 148-81 0-147-51-147-133z m116-22l-117 6c-7 0-10-5-7-11l27-51 26-51c3-6 9-6 13 0l32 48 32 48c4 6 1 11-6 11z"/>
<glyph unicode="&#94;" d="M363 84l-2-10-210 0-2 10z m4 23l-2-10-218 0-2 10z m-8-45l-5-29-196 0-5 29z m76 187c0-10-17-18-38-18-3 0-5 1-8 1l-20-113-226 0-20 113c-3 0-5-1-8-1-21 0-38 8-38 18 0 10 17 18 38 18 1 0 1 0 1 0l-7 39 294 0-7-39c0 0 0 0 1 0 21 0 38-8 38-18z m-19 202c-7-14-13-25-18-36-1-2-10-1-11-3-25-52-24-75-28-103l-124 0 10 18c37 41 60 38 104 105 2 2-2 7-1 10 6 10 12 21 20 34 4 8 53-19 48-25z"/>
<glyph unicode="&#95;" d="M374 323c-12 7-23-11-11-18 25-14-2-45-12-62-6-11 12-22 18-10 17 28 44 68 5 90z m-118 172c-132 0-239-107-239-239 0-132 107-239 239-239 132 0 239 107 239 239 0 132-107 239-239 239z m109-83c20-16 34-43 26-68-6 5-12 8-19 11 2 14-7 30-18 39-11 8 0 26 11 18z m42-131c0 0-17-129-192-155-36-6-60-8-75-8-57 0 17 32 31 43 18 13 101 74 132 151 11 27 29 37 46 37 7 0 13-1 20-4 6-2 12-6 18-10 16-14 27-35 20-54z"/>
<glyph unicode="&#96;" d="M307 270c-12 3-25 5-40 5l-1-48c14 0 27-3 39-6 1 17 2 34 2 49z m0-102c7-7 13-15 18-21 7 12 13 25 18 41-8 8-18 16-31 21-1-13-3-27-5-41z m0 194c3-12 5-25 6-40 16-6 30-14 41-22-1 17-4 33-8 47-13 7-26 11-39 15z m-36 53c4 0 8-1 12-1-4 9-8 16-12 22z m-4-132c15 0 28-2 40-5 0 14-1 26-2 38-11 4-24 6-37 7z m29 121c4-10 7-21 10-34 12-3 24-7 36-12-4 14-10 27-17 38-9 4-19 6-29 8z m60-132c0 6-1 12-1 17-11 9-25 18-41 24 0-11 1-24 1-37 16-6 29-13 40-20 0 5 1 10 1 16z m-87 96l-1-37c13 0 25-3 36-6-1 14-3 27-5 39-10 2-20 3-30 4z m-4 68c-4-5-9-13-14-21 4 0 9 0 14 0z m-50-116c-3 0-5-1-8-1 2-8 4-16 6-23 0 8 1 16 2 24z m-17 68c0-5 1-11 1-17 9 1 18 3 28 4 3 12 7 22 12 31-12-1-23-3-34-4-2-4-5-9-7-14z m106-176c-11 4-24 7-39 8l0-12c13-12 25-23 35-33 2 13 3 26 4 37z m-34 164c8-1 18-2 27-4-3 13-7 24-10 33-6 1-11 1-17 1z m-13-162l0 6c-2 0-4 0-5 0 0-1 0-1 0-1 2-2 4-3 5-5z m2 62c-14 0-27-1-39-3 6-18 14-34 24-46 4 1 9 1 14 1z m3 131c-4 0-9 0-14-1-4-8-8-18-12-30 8 0 17 0 26 0z m92-161c-10 8-23 16-39 21 0-15-1-32-3-49 14-6 25-14 34-22 4 16 7 33 8 50z m-73 191c4-7 8-15 12-24 8-2 17-3 25-6-11 15-24 25-37 30z m-21-113c0 0 0 0 0 0-13 0-25-1-36-3-2-12-3-25-4-40 12 2 25 3 39 3z m-36 43c-8-1-16-3-24-4 2-12 3-24 6-36 3 0 7 1 10 1 2 15 5 27 8 39z m-12 44c10 2 20 3 31 3 6 12 12 20 17 25-17-1-34-11-48-28z m49-43c-9 0-19 0-28-1-3-11-6-23-8-37 11 1 22 2 35 2 0 0 0 0 0 0z m-107-173c3-24 9-46 21-65 28-43 62-52 85-52 9 0 17 1 25 3-21 1-40 8-56 22-23 20-40 55-51 102 0 3-1 6-1 8-3 15-6 30-7 46-1 3-1 6-1 9-1 3-1 7-1 11-1 9-2 18-2 27 0 3 0 6 0 8 0 2 0 4 0 6-1-2-1-4-2-6 0-3-1-7-2-10-3-14-5-28-7-42 0-3 0-6 0-9-2-17-2-33-1-49 0-3 0-6 0-9z m20 114c1-12 1-25 3-39 0-2 0-5 0-8 2-15 4-31 7-46 1-3 1-5 2-8 7-33 19-64 37-86 3-5 7-9 12-13 20-18 72-35 93-3 6 9 2 21-7 35-4 6-9 12-15 19-2 2-5 5-7 7-10 11-22 21-34 32-3 2-5 5-8 7-3 2-5 4-8 7-2 2-4 4-6 6-2 2-5 5-6 8-7 9-13 19-18 31-2 4-3 9-5 14-1 2-2 4-2 7 0 0-1 0-1 1-3 12-6 25-9 37 0 0-12 62-14 79 0 0-14-33-14-87z"/>
<glyph unicode="&#1638;" d="M256 495c-132 0-239-107-239-239 0-132 107-239 239-239 132 0 239 107 239 239 0 132-107 239-239 239z m98-195c-11 8-25 16-41 22-1 15-3 28-6 40 13-4 26-8 39-15 4-14 7-30 8-47z m-12 58c-12 5-24 9-36 12-3 13-6 24-10 34 10-2 20-4 29-8 7-11 13-24 17-38z m-24 49c-8 3-17 4-25 6-4 9-8 17-12 24 13-5 26-15 37-30z m-47 29c4-6 8-13 12-22-4 0-8 1-12 1z m-1-30c6 0 11 0 17-1 3-9 7-20 10-33-9 2-19 3-27 4z m-1-38c10-1 20-2 30-4 2-12 4-25 5-39-11 3-23 6-36 6z m-1-45c13-1 26-3 37-7 1-12 2-24 2-38-12 3-25 5-40 5z m-1-48c15 0 28-2 40-5 0-15-1-32-2-49-12 3-25 6-39 6z m37-63c-1-11-2-24-4-37-10 10-22 21-35 33l0 12c15-1 28-4 39-8z m-39 203c-5 0-10 0-14 0 5 8 10 16 14 21z m-21-188c-10 12-18 28-24 46 12 2 25 3 39 3l-1-48c-5 0-10 0-14-1z m13-7l0-6c-1 2-3 3-5 5 0 0 0 0 0 1 1 0 3 0 5 0z m-51 107c-3 12-4 24-6 36 8 1 16 3 24 4-3-12-6-24-8-39-3 0-7-1-10-1z m9-7c-1-8-2-16-2-24-2 7-4 15-6 23 3 0 5 1 8 1z m5-39c1 15 2 28 4 40 11 2 23 3 36 3 0 0 0 0 0 0l-1-40c-14 0-27-1-39-3z m40 51c-13 0-24-1-35-2 2 14 5 26 8 37 9 1 19 1 28 1l-1-36c0 0 0 0 0 0z m-24 44c4 12 8 22 12 30 5 1 10 1 14 1l0-31c-9 0-18 0-26 0z m24 63c-5-5-11-13-17-25-11 0-21-1-31-3 14 17 31 27 48 28z m-55-37c11 1 22 3 34 4-5-9-9-19-12-31-10-1-19-3-28-4 0 6-1 12-1 17 2 5 5 10 7 14z m55-324c-23 0-57 9-85 52-12 19-18 41-21 65 0 3 0 6 0 9-1 16-1 32 1 49 0 3 0 6 0 9 2 14 4 28 7 42 1 3 2 7 2 10 1 2 1 4 2 6 0-2 0-4 0-6 0-2 0-5 0-8 0-9 1-18 2-27 0-4 0-8 1-11 0-3 0-6 1-9 1-16 4-31 7-46 0-2 1-5 1-8 11-47 28-82 51-102 16-14 35-21 56-22-8-2-16-3-25-3z m68 28c-21-32-73-15-93 3-5 4-9 8-12 13-18 22-30 53-37 86-1 3-1 5-2 8-3 15-5 31-7 46 0 3 0 6 0 8-2 14-2 27-3 39 0 54 14 87 14 87 2-17 14-79 14-79 3-12 6-25 9-37 0-1 1-1 1-1 0-3 1-5 2-7 2-5 3-10 5-14 5-12 11-22 18-31 1-3 4-6 6-8 2-2 4-4 6-6 3-3 5-5 8-7 3-2 5-5 8-7 12-11 24-21 34-32 2-2 5-5 7-7 6-7 11-13 15-19 9-14 13-26 7-35z m-3 41c-5 6-11 14-18 21 2 14 4 28 5 41 13-5 23-13 31-21-5-16-11-29-18-41z m21 49c-9 8-20 16-34 22 2 17 3 34 3 49 16-5 29-13 39-21-1-17-4-34-8-50z m9 60c-11 7-24 14-40 20 0 13-1 26-1 37 16-6 30-15 41-24 0-5 1-11 1-17 0-6-1-11-1-16z"/>
<glyph unicode="&#1927;" d="M96 293c0 0 7 62-20 41 0 0-14-11-10-27 0 0-40 8-35-14 0 0-1-13 36-22 0 0 26-9 39-32 12-24 22-53 42-66 0 0-4-63 36-63l242 0c0 0 63 39 63 111 0 71-82 121-152 121 0 0-97-4-126-39 0 0 78 5 101-77 0 0-46 74-185 55 0 0-20-4-31 12z"/>
<glyph unicode="&#1911;" d="M340 274c0 0 0 0 0 0l4 23-176 0 4-23c0 0 0 0 0 0-13 0-23-5-23-11 0-6 10-10 23-10 1 0 3 0 4 0l12-67 136 0 12 67c1 0 3 0 4 0 13 0 23 4 23 10 0 6-10 11-23 11z m-17 125c-5-8-8-14-12-20-1-2 2-5 1-6-27-40-40-38-62-63l-7-11 75 0c2 17 2 31 17 62 0 1 5 1 6 2 3 6 6 13 11 21 3 4-27 20-29 15z m-132-226l130 0 1 5-132 0z m2-14l126 0 1 6-128 0z m5-25l116 0 4 17-124 0z m58-117c-132 0-239 107-239 239 0 132 107 239 239 239 132 0 239-107 239-239 0-132-107-239-239-239z"/>
<glyph unicode="&#35209;" d="M256 495c-132 0-239-107-239-239 0-132 107-239 239-239 132 0 239 107 239 239 0 132-107 239-239 239z m-100-352l-26 51-27 51c-3 6 0 11 7 11l117-6c7 0 10-5 6-11l-32-48-32-48c-4-6-10-6-13 0z m102-33c-24 0-47 6-67 16-6 3-7 10-3 16 15 23 48 80 62 104 3 6 0 12-7 12-35 3-129 9-131 8-1 0-1-1-1 6 0 82 66 133 147 133 82 0 148-66 148-148 0-81-66-147-148-147z"/>
<glyph unicode="&#1365;" d="M196 119c0-20-14-36-31-36-1 0-2 0-3 0l-9 69c4 2 8 3 12 3 17 0 31-16 31-36z m140 87l-26-166-142 3-3 17c2 0 4 0 6 0 29 0 53 27 53 61 0 34-24 61-53 61-7 0-14-2-20-5l-4 29 189 0z m-212 41l235 0 0-30-235 0z m209 20l-184 0 24 96 142 0z m70 209l0-19c0 0-78 2-89 2-5-10-37-84-37-84l-22 1 43 97 3 6z"/>
<glyph unicode="&#57344;" d="M285 387l-1-4-25-56 13-1c0 0 18 43 20 49 7 0 52-1 52-1l0 11z m-74-67l-14-56 107 0-11 56z m-28-85l136 0 0 17-136 0z m15-23c4 2 8 3 12 3 17 0 31-16 31-36 0-19-14-35-31-35-1 0-2 0-3 0l1-10 82-1 15 96-109 0z m6-54c1 0 2 0 3 0 10 0 18 9 18 20 0 12-8 21-18 21-3 0-5-1-7-2z m52-141c-132 0-239 107-239 239 0 132 107 239 239 239 132 0 239-107 239-239 0-132-107-239-239-239z"/>
<glyph unicode="&#57345;" d="M146 150c0-5 22-13 54-16l106 0c32 3 54 11 54 16z m191 49c-8 1-14 5-19 11-7-7-19-6-26 0-10-8-22-9-33-2-7-4-16-3-23 0-9-5-20-4-28 2-6-4-14-4-21-1-6-7-12-9-18-9l-6-32 180 0 0 0c0 3-6 31-6 31z m-13 73c-6 9-134 9-142 0l0 0c-13-14-13-30-19-44 2-13 7-16 16 0 5 23 9 23 12 0 3-5 6-5 10 0 5 13 10 8 15 0 5-7 10-7 15 0 3 35 6 21 8 0 5-5 11-8 16 0 3 6 5 6 9 0 6-10 13-10 20 0 5 19 10 25 16 0 3-5 6-8 9 0 5 6 11 6 17 0 8-9 16-20 17 0-6 14-8 29-19 44z m-32 56l0-34c3 0 7 0 10-1l0 35z m5 55c-13-5-14-28 0-39 24 7-1 31 0 39z m-49-55l0-32c2 0 4 0 6 0 2 0 3 0 4 0l0 32z m5 55c-13-5-15-28 0-39 24 7-1 31 0 39z m-49-55l0-35c3 1 7 1 10 1l0 34z m5 55c-13-5-15-28 0-39 24 7-1 31 0 39z m47-366c-132 0-239 107-239 239 0 132 107 239 239 239 132 0 239-107 239-239 0-132-107-239-239-239z"/>
<glyph unicode="&#57346;" d="M86 283c119 0 236 0 355 0-17-42-59-76-158-90-11-40-14-80-5-120 5-21 4-17 24-22l61-15c-66 0-133 0-199 0l61 15c20 5 19 1 24 22 9 40 6 80-5 120-99 14-141 48-158 90z m126 90c9 0 17-7 17-16 0-9-8-16-17-16-9 0-17 7-17 16 0 9 8 16 17 16z m83-13c9 0 16-7 16-16 0-9-7-16-16-16-10 0-17 7-17 16 0 9 7 16 17 16z m85 28c13 0 24-10 24-22 0-13-11-23-24-23-13 0-23 10-23 23 0 12 10 22 23 22z m-67 44c13 0 24-10 24-23 0-12-11-23-24-23-13 0-23 11-23 23 0 13 10 23 23 23z m-69 36c9 0 16-7 16-15 0-8-7-15-16-15-8 0-15 7-15 15 0 8 7 15 15 15z"/>
<glyph unicode="&#57347;" d="M367 358c-38 35-96 31-131-7-31-34-35-85-62-122-3-6-11-11-14-16-4-7 2-6 1-12 0-4-8-11-10-14-1-1-17-1-19-1-7-2-12-5-16-10-19-24 9-46 33-38-5-1 9-20 11-22 15-10 37-3 45 13 5 9 0 20-5 28 4 6 8 13 11 19 0 1 1 1 2 2 16 30 51 23 80 27 23 3 48 9 68 23 45 30 45 94 6 130z m-179-205c4-6 8-13 5-20-2-7-12-9-18-10-11 4-15 12-14 23 0 2 0 4-1 5-2 2-5 4-8 2-10-6-21-7-30 2-2 18 14 22 30 19 0 0 1 0 1 0 2 0 4 1 6 2 4 6 8 11 12 17 0 0 1-1 1-1 9-5 17-9 26-14-3-6-6-11-10-16-1-1-2-2-2-3 0-2 0-4 2-6z m195 131c-3-26-21-44-44-54-22-10-48-14-72-15-26-1-49-4-63-26-8 4-16 8-24 13 0 0-1 1-1 1-1 1-2 1-3 2 0 0 0 0 0 0-1 1-2 2-3 3 28 29 37 70 54 106 10 20 23 38 43 48 25 13 55 10 78-5 25-16 38-44 35-73z m-42 39c25-27 5-62-26-73-11-3-7-21 4-17 45 15 69 65 35 103-8 8-20-4-13-13z"/>
<glyph unicode="&#57348;" d="M380 163l57-87c-112-67-260-35-329 73-70 108-36 250 76 317l27-41c-2-1-3-2-5-3-19-11-25-36-13-54 12-19 38-24 57-13 1 1 3 2 4 3l29-45c-6-12-6-26 2-38 8-12 21-19 35-19l36-56c-5 0-11-1-16-4-13-8-17-24-8-37 8-12 25-16 38-8 5 3 8 7 10 12z m-44-79c13 8 17 24 9 37-8 12-25 16-38 8-13-8-17-24-9-37 8-12 25-16 38-8z m-53 88c19 12 25 36 13 55-12 18-37 24-56 13-13-8-20-21-20-34 0-7 2-15 7-21 12-18 37-24 56-13z m-83-36c13 8 17 24 9 37-8 12-25 16-38 8-13-7-17-24-9-36 8-13 25-17 38-9z m-21 97c19 11 25 36 13 54-12 19-38 24-57 13-19-12-25-36-13-55 12-18 37-24 57-12z"/>
<glyph unicode="&#57349;" d="M210 242c-11-7-26-4-32 7-7 11-4 25 7 31 11 7 26 4 33-7 7-11 3-25-8-31z m13-57c-8-4-18-2-22 5-5 8-3 17 5 22 7 4 17 2 22-5 5-7 2-17-5-22z m48 21c-11-6-26-3-33 8l0 0c-7 11-3 25 8 31 11 7 26 4 32-7 7-11 4-25-7-32z m9-46c-5 7-3 17 5 21 7 5 17 3 22-5 5-7 2-16-5-21l0 0c-8-4-18-2-22 5z m47 41l0 0c-1-3-3-5-6-7-7-5-17-2-22 5-5 7-2 17 5 21 3 2 6 3 9 2l-21 33c-8 0-16 4-20 11-5 7-5 15-1 22l-17 26c-1 0-2-1-2-1-11-7-26-4-33 7-7 11-4 25 7 32 1 0 2 0 3 1l-16 24c-64-39-84-122-44-184 41-62 126-82 191-43z m-71-184c-132 0-239 107-239 239 0 132 107 239 239 239 132 0 239-107 239-239 0-132-107-239-239-239z"/>
<glyph unicode="&#57350;" d="M188 162c4 5 7 10 10 16-9 5-17 9-26 14 0 0-1 1-1 1-4-6-8-11-12-17-2-1-4-2-6-2 0 0-1 0-1 0-16 3-32-1-30-19 9-9 20-8 30-2 3 2 6 0 8-2 1-1 1-3 1-5-1-11 3-19 14-23 6 1 16 3 18 10 3 7-1 14-5 20-2 2-2 4-2 6 0 1 1 2 2 3z m160 195c-23 15-53 18-78 5-20-10-33-28-43-48-17-36-26-77-54-106 1-1 2-2 3-3 0 0 0 0 0 0 1-1 2-1 3-2 0 0 1-1 1-1 8-5 16-9 24-13 14 22 37 25 63 26 24 1 50 5 72 15 23 10 41 28 44 54 3 29-10 57-35 73z m-29-124c-11-4-15 14-4 17 31 11 51 46 26 73-7 9 5 21 13 13 34-38 10-88-35-103z m-63 262c-132 0-239-107-239-239 0-132 107-239 239-239 132 0 239 107 239 239 0 132-107 239-239 239z m105-267c-20-14-45-20-68-23-29-4-64 3-80-27-1-1-2-1-2-2-3-6-7-13-11-19 5-8 10-19 5-28-8-16-30-23-45-12-2 1-16 20-11 21-24-8-52 14-33 38 4 5 9 8 16 10 2 0 18 0 19 1 2 3 10 10 10 14 1 6-5 5-1 12 3 5 11 10 14 16 27 37 31 88 62 122 35 38 93 42 131 7 39-36 39-100-6-130z"/>
<glyph unicode="&#57351;" d="M152 272c11-27 37-48 99-57 7-25 9-50 3-75-2-13-2-11-15-14l-38-9c42 0 83 0 125 0l-38 9c-13 3-13 1-15 14-6 25-4 50 2 75 63 9 89 30 100 57-75 0-148 0-223 0z m185 66c-8 0-15-7-15-15 0-8 7-14 15-14 8 0 15 6 15 14 0 8-7 15-15 15z m-42 27c-8 0-15-6-15-14 0-8 7-15 15-15 8 0 15 7 15 15 0 8-7 14-15 14z m-23-55c0-6 5-11 11-11 6 0 11 5 11 11 0 5-5 10-11 10-6 0-11-5-11-10z m-21 78c-5 0-9-5-9-10 0-5 4-9 9-9 6 0 10 4 10 9 0 5-4 10-10 10z m-20-60c-6 0-10-5-10-10 0-6 4-10 10-10 6 0 11 4 11 10 0 5-5 10-11 10z m25-311c-132 0-239 107-239 239 0 132 107 239 239 239 132 0 239-107 239-239 0-132-107-239-239-239z"/>
<glyph unicode="&#57352;" d="M430 149l0-27c0-13-13-23-28-23l-285 0c-16 0-28 10-28 23l0 27z m-27 69c28 0 51-8 51-17 0-10-23-17-51-17l-287 0c-28 0-52 7-52 17 0 9 24 17 52 17z m59 23l0-5c-3 0-5 0-8 0-24 0-42 11-43 25l0 1c-1 5-11 10-25 10-14 0-24-5-25-11l0 0 0-3 0-2c-4-12-21-21-42-21-21 0-38 9-41 21l-1 2 0 3c-1 6-11 11-25 11-15 0-25-5-25-11l-1-3 0-2c-4-12-21-21-42-21-23 0-42 11-42 25l0 2c-2 5-11 10-25 10-14 0-25-6-25-11l0-3-1-2c-3-12-20-21-41-21l0 14c14 0 25 6 25 11l0 3 1 1c3 13 20 22 41 22 24 0 42-11 42-26l0 0c1-5 12-11 25-11 15 0 25 6 25 12l1 2 0 2c3 12 20 21 42 21 21 0 38-9 41-21l1-2 0-2c0-6 11-12 25-12 15 0 25 6 25 12l0 2 1 2c3 12 20 21 41 21 24 0 43-11 43-25l0-1c1-5 11-10 25-10 3 0 6 0 8 0l0-9z m-31 98c0-2 0-4-1-5l1 0 0-28-343 0 0 28 0 0c0 1 0 3 0 5 0 37 76 67 171 67 95 0 172-30 172-67z"/>
<glyph unicode="&#57353;" d="M306 258c-11 8-28-7-28-7-1-21-15-15-15-15-19 10-27-8-27-8-13-16-25-10-28-9-2 34-4 64-4 67 5 0 99 0 104 0 0-2-1-13-2-28z m35 119l-45-5-5-1-36-79-57 0 0-2 11-160 90 0 16 162-45 0c5 11 26 61 29 68 8 1 45 5 45 5z m-85-360c-132 0-239 107-239 239 0 132 107 239 239 239 132 0 239-107 239-239 0-132-107-239-239-239z"/>
<glyph unicode="&#57354;" d="M443 199l0 0-2-71-1-2c-1-3-14-26-61-21l-1 27c21-3 34 2 37 5 1 7 2 61 2 62 0 11-4 14-5 15-8 6-29 4-34 3l-1 25c3 1 32 8 51-7 7-6 15-16 15-36z m-66-139l-1-18-199 0 1 18z m-192 246l44 0 0-225-44 0z m125 0l51 0 0-225-51 0z m-132 36l199 0 0-18-199 0z m61-36l62 0 0-225-62 0z m-15 150c17 49 56 0 56 0 59 36 61-46 61-46 79 13 39-48 39-48l13-6-241 0 0-51 13-2-2-58c-48-20-35 17-35 17-41-9-30 33-30 33-59 10-11 63-11 63-2 69 48 32 48 32-5 31 39 35 39 35-2 50 50 31 50 31z m56-15c2 4-3 9-11 13-8 3-16 2-18-2-2-4 4-10 12-13 8-3 16-2 17 2z m8 0c-1-2 2-6 8-9 5-2 10-1 11 1 1 3-2 7-7 9-6 2-11 2-12-1z"/>
<glyph unicode="&#57355;" d="M404 244l0 7c-2 0-4-1-6-1-10 0-17 4-18 8l0 0c0 11-13 19-30 19-16 0-28-7-30-16l0-1-1-2c0-4-7-8-18-8-10 0-18 4-18 8l0 2 0 1c-2 9-15 16-30 16-15 0-28-7-30-16l0-1-1-2c0-4-7-8-17-8-10 0-18 4-18 8l0 0c0 10-14 18-31 18-15 0-27-6-30-15l0-1 0-2c0-4-8-8-18-8l0-10c15 0 27 6 30 15l0 1 0 2c1 4 8 8 18 8 10 0 17-3 18-7l0-1c0-10 14-18 31-18 15 0 27 6 29 15l1 2 0 2c0 3 7 8 18 8 10 0 18-4 18-8l0-3 1-1c2-8 14-15 29-15 15 0 28 7 30 15l1 2 0 1 0 1c0 4 8 8 18 8 9 0 16-4 18-8l0-1c0-10 13-18 30-18 2 0 4 1 6 1l0 3z m-146 119c-68 0-123-22-123-49 0-1 0-2 0-3l0 0 0-20 246 0 0 20 0 0c1 1 1 2 1 3 0 27-56 49-124 49z m-103-160l206 0c21 0 37 6 37 12 0 7-16 12-37 12l-206 0c-20 0-37-5-37-12 0-6 17-12 37-12z m-19-44c0-9 9-17 20-17l205 0c11 0 20 8 20 17l0 19-245 0z m120-142c-132 0-239 107-239 239 0 132 107 239 239 239 132 0 239-107 239-239 0-132-107-239-239-239z"/>
<glyph unicode="&#57356;" d="M464 134c0 0 5-5 5-12 0-6-5-11-12-11l-402 0c-6 0-12 5-12 11 0 7 6 12 19 12z m-29 39c0-1 0-3 0-4-1-1-1-2-1-2l0-3-356 0 0 3c0 0 0 1 0 2 0 1 0 3 0 4 0 95 74 173 169 178l0 22c-10 4-17 14-17 24 0 15 12 27 26 27 15 0 27-12 27-27 0-10-7-20-17-24l0-22c95-5 169-83 169-178z m-42 32c0 0 0 1 0 1-3 78-77 110-97 115 0 0-1 0-1 0-3 0-5-2-6-5 0-4 3-8 6-9 1 0 86-34 85-99 0-4 3-7 7-8 3 0 5 2 6 5z"/>
<glyph unicode="&#57357;" d="M256 495c-132 0-239-107-239-239 0-132 107-239 239-239 132 0 239 107 239 239 0 132-107 239-239 239z m107-316l-162 0c-26 0-24 41-24 41-13 10-20 29-28 44-8 16-26 22-26 22-24 6-24 15-24 15-3 14 24 9 24 9-3 11 6 18 6 18 19 14 14-27 14-27 7-11 20-8 20-8 93 12 124-37 124-37-16 54-68 52-68 52 20 23 84 25 84 25 47 0 102-33 102-80 0-48-42-74-42-74z"/>
<glyph unicode="&#57358;" d="M353 116c0 0 0 0 0 0l0 245c0 7-12 28-18 38l0 6c2 1 4 4 4 6 0 5-4 8-8 9-2 0-18 1-71 1-53 0-66-1-68-1-5-1-8-4-8-9 0-1 1-3 1-4l0-8c-5-10-17-31-17-38l0-247c0 0 0 0 0 0 0 0 0-1 0-1 0 0 0 0 0 0 0 0 0-1 0-1 0 0 0 0 0 0 0 0 0 0 1-1 0 0 0 0 0 0 0 0 0 0 0 0 0-1 0-1 1-1 0 0 0 0 0 0 0 0 0 0 0 0 1 0 1-1 1-1 0 0 4-2 11-4-1-1-1-1-1-2l0-9c0-3 1-5 4-5 2-1 39-11 80-11 25 0 52 4 74 14 2 1 3 3 3 5l0 7c0 1 0 1 0 2 2 1 5 2 8 3 3 1 4 4 3 7z m-175 174c2 0 4 0 6 1 2 0 4 0 6 1 3 0 5 1 7 1 2 1 4 2 6 2 2 1 5 2 7 2 2 1 4 2 6 3 2 1 5 2 7 3 2 1 4 3 6 4 2 1 4 2 6 4 2 1 4 2 6 4 2 1 4 3 6 4 2 2 4 3 6 5 3 3 6 6 10 9l2 3 2 1c1 2 3 3 4 4 2 1 3 2 5 3 1 1 3 2 4 3 2 1 4 2 5 3 2 0 3 1 5 2 2 1 4 1 5 2l3 1 2 1c14 4 29 4 42 4 0 0 0 0 0 0l0-147c-4 2-9 3-15 3-9 2-19 2-29 0-2 0-5 0-7-1-3-1-6-1-8-2-5-2-10-4-15-6-2-1-5-3-7-4-2-1-5-3-7-4-2-2-4-3-6-5l-4-3-2-2c-3-3-6-6-10-9l-4-4-5-4c-1-2-3-3-4-4-2-1-3-2-5-4-2-1-3-2-5-3-1-1-3-2-5-3-1-1-3-2-5-3-1-1-3-2-5-3-1-1-3-1-5-2-1-1-3-2-5-2-1-1-3-2-5-3 0 0 0 0-1 0l0 145z m17 105c1 1 1 2 1 3l0 5 129 0 0-5c0-1 0-2 0-3 3-4 6-9 8-14-3 1-7 2-11 2-8 1-18 1-28 0-3 0-5-1-8-1-2-1-5-2-7-2-5-2-10-4-15-6-2-1-4-3-7-4-2-1-4-3-6-5-2-1-4-3-7-4l-3-3-2-2c-3-4-6-7-10-10l-4-4-4-4c-2-1-3-2-5-3-1-2-3-3-5-4-1-1-3-2-4-3-2-1-3-2-5-3-2-1-3-2-5-3-2-1-3-2-5-3-1-1-3-2-5-3-1 0-3-1-5-2-1 0-2-1-4-2l0 49c0 3 9 21 17 34z m-17-277l0 5c1 0 1 0 2 0 2 0 4 1 6 1 2 0 4 1 7 1 2 1 4 1 6 2 2 0 4 1 7 2 2 0 4 1 6 2 3 1 5 2 7 3 2 1 4 1 7 3 2 1 4 2 6 3 2 1 4 3 6 4 2 1 5 3 7 4 2 2 4 3 6 5 2 1 3 3 5 4 4 4 7 7 10 10l3 2 2 2c1 1 2 2 4 3 2 1 3 2 5 3 1 1 3 2 4 3 2 1 4 2 5 3 2 1 4 2 5 2 2 1 4 2 5 2l3 1 3 1c12 4 25 4 37 4l0-75c-80-30-149-6-164 0z m11 115c0 12 5 24 14 32 6 7 13 11 21 14 6 1 11 1 13 1l-3-9c-2 0-6 0-11-1-6-2-11-5-15-10-5-6-8-14-8-22 0-10 5-16 16-13 4 2 9 4 12 6l1-8c-3-2-9-5-15-7-15-4-25 2-25 17z m59-6c15 4 25 19 25 33 0 9-6 15-18 12-14-4-23-19-23-33 0-10 6-16 16-12z m6 37c6 2 8-3 8-7 0-8-5-20-12-22-5-2-8 1-8 7 0 8 4 20 12 22z m28-26l-9-3 11 64 10 2z m20 5c6 1 11 5 15 14l0 0c0-3 0-7 0-9l9 2c0 5 0 13 2 20l4 23c-3 0-8-1-13-2-19-6-29-24-29-38 0-8 5-13 12-10z m15 39c2 1 3 1 4 1l-2-11c-2-11-8-19-13-20-4-2-6 2-6 6 0 9 8 22 17 24z"/>
<glyph unicode="&#57359;" d="M300 258c0-4 2-8 6-6 5 1 11 9 13 20l2 11c-1 0-2 0-4-1-9-2-17-15-17-24z m-46 6c-8-2-12-14-12-22 0-6 3-9 8-7 7 2 12 14 12 22 0 4-2 9-8 7z m-67 52c2 1 4 2 5 3 2 1 3 2 5 3 2 1 3 2 5 3 2 1 3 2 5 3 1 1 3 2 4 3 2 1 4 2 5 4 2 1 3 2 5 3l4 4 4 4c4 3 7 6 10 10l2 2 3 3c3 1 5 3 7 5 2 1 4 3 6 4 3 1 5 3 7 4 5 2 10 4 15 6 2 0 5 1 7 2 3 0 5 1 8 1 10 1 20 1 28 0 4 0 8-1 11-2-2 5-5 10-8 14 0 1 0 2 0 3l0 5-129 0 0-5c0-1 0-2-1-3-8-13-17-31-17-34l0-49c2 1 3 2 4 2 2 1 4 2 5 2z m118-127l-3-1-3-1c-1 0-3-1-5-2-1 0-3-1-5-2-1-1-3-2-5-3-1-1-3-2-4-3-2-1-3-2-5-3-2-1-3-2-4-3l-2-2-3-2c-3-3-6-6-10-10-2-1-3-3-5-4-2-2-4-3-6-5-2-1-5-3-7-4-2-1-4-3-6-4-2-1-4-2-6-3-3-2-5-2-7-3-2-1-4-2-7-3-2-1-4-2-6-2-3-1-5-2-7-2-2-1-4-1-6-2-3 0-5-1-7-1-2 0-4-1-6-1-1 0-1 0-2 0l0-5c15-6 84-30 164 0l0 75c-12 0-25 0-37-4z m-49 306c-132 0-239-107-239-239 0-132 107-239 239-239 132 0 239 107 239 239 0 132-107 239-239 239z m94-386c-3-1-6-2-8-3 0-1 0-1 0-2l0-7c0-2-1-4-3-5-22-10-49-14-74-14-41 0-78 10-80 11-3 0-4 2-4 5l0 9c0 1 0 1 1 2-7 2-11 4-11 4 0 0 0 1-1 1 0 0 0 0 0 0 0 0 0 0 0 0-1 0-1 0-1 1 0 0 0 0 0 0 0 0 0 0 0 0-1 1-1 1-1 1 0 0 0 0 0 0 0 0 0 1 0 1 0 0 0 0 0 0 0 0 0 1 0 1 0 0 0 0 0 0l0 247c0 7 12 28 17 38l0 8c0 1-1 3-1 4 0 5 3 8 8 9 2 0 15 1 68 1 53 0 69-1 71-1 4-1 8-4 8-9 0-2-2-5-4-6l0-6c6-10 18-31 18-38l0-245c0 0 0 0 0 0 1-3 0-6-3-7z m-50 247l-2-1-3-1c-1-1-3-1-5-2-2-1-3-2-5-2-1-1-3-2-5-3-1-1-3-2-4-3-2-1-3-2-5-3-1-1-3-2-4-4l-2-1-2-3c-4-3-7-6-10-9-2-2-4-3-6-5-2-1-4-3-6-4-2-2-4-3-6-4-2-2-4-3-6-4-2-1-4-3-6-4-2-1-5-2-7-3-2-1-4-2-6-3-2 0-5-1-7-2-2 0-4-1-6-2-2 0-4-1-7-1-2-1-4-1-6-1-2-1-4-1-6-1l0 0 0-145c1 0 1 0 1 0 2 1 4 2 5 3 2 0 4 1 5 2 2 1 4 1 5 2 2 1 4 2 5 3 2 1 4 2 5 3 2 1 4 2 5 3 2 1 3 2 5 3 2 2 3 3 5 4 1 1 3 2 4 4l5 4 4 4c4 3 7 6 10 9l2 2 4 3c2 2 4 3 6 5 2 1 5 3 7 4 2 1 5 3 7 4 5 2 10 4 15 6 2 1 5 1 8 2 2 1 5 1 7 1 10 2 20 2 29 0 6 0 11-1 15-3l0 147c0 0 0 0 0 0-13 0-28 0-42-4z m-84-131c4 2 9 4 12 6l1-8c-3-2-9-5-15-7-15-4-25 2-25 17 0 12 5 24 14 32 6 7 13 11 21 14 6 1 11 1 13 1l-3-9c-2 0-6 0-11-1-6-2-11-5-15-10-5-6-8-14-8-22 0-10 5-16 16-13z m32 2c-10-4-16 2-16 12 0 14 9 29 23 33 12 3 18-3 18-12 0-14-10-29-25-33z m34 11l-9-3 11 64 10 2z m46 32c-2-7-2-15-2-20l-9-2c0 2 0 6 0 9l0 0c-4-9-9-13-15-14-7-3-12 2-12 10 0 14 10 32 29 38 5 1 10 2 13 2z"/>
<glyph unicode="&#57360;" d="M367 207c45 0 82-37 82-82 0-46-37-82-82-82-45 0-82 36-82 82 0 45 37 82 82 82z m-6-49c6 2 10 8 8 15-1 5-6 8-11 8-1 0-2 0-3 0-17-4-47-22-43-61 0-1 0-2 0-2 2-5 7-8 11-8 1 0 1 0 2 0 6 1 11 6 10 13-2 27 23 35 26 35z m-224 97c46 0 82-37 82-82 0-46-36-82-82-82-45 0-82 36-82 82 0 45 37 82 82 82z m-6-44c6 1 10 8 8 14-1 5-6 9-11 9-1 0-2-1-3-1-17-4-47-22-43-61 0-1 0-1 0-2 2-5 7-8 12-8 0 0 1 0 1 0 6 1 11 7 11 13-3 27 22 35 25 36z m144 177c20-39 52-106 61-153 0-3-2-7-5-7-1 0-1 0-1 0-3 0-6 2-7 5-5 31-23 74-40 109 3-21 0-40-6-56-16-37-49-49-50-50-3-1-7 1-8 4-1 3 1 7 4 8 0 0 29 11 42 43 12 29 8 68-13 113l-28 23 1 15 11 10 19-1 6-39 2-2c2-4 5-9 9-15l6-5c-1-1-2-2-3-2z m93 49c0 0 5 1 2 2 0 0-26 10-52-2-11-5-29-17-29-17-3 26 21 34 21 34 48 16 78-21 78-21-32-6-30-30-57-42-17-8-32 5-37 13-2-2-10-8-16-14l-6 5c7 6 17 14 19 15 0 0 1 1 1 1l3 1c3 3 5 4 8 5l0 0c0 0 16 11 37 19 5 1 14 3 28 1z"/>
</font>
</defs>
</svg>
